<?xml version="1.0" standalone="no"?>
<!DOCTYPE svg PUBLIC "-//W3C//DTD SVG 1.1//EN" "http://www.w3.org/Graphics/SVG/1.1/DTD/svg11.dtd" >
<svg xmlns="http://www.w3.org/2000/svg" xmlns:xlink="http://www.w3.org/1999/xlink" version="1.1">
<metadata></metadata>
<defs>
<font id="bilboregular" horiz-adv-x="673" >
<font-face units-per-em="2048" ascent="1638" descent="-410" />
<missing-glyph horiz-adv-x="409" />
<glyph horiz-adv-x="0" />
<glyph horiz-adv-x="0" />
<glyph horiz-adv-x="682" />
<glyph unicode="&#xd;" horiz-adv-x="409" />
<glyph unicode=" "  horiz-adv-x="409" />
<glyph unicode="&#x09;" horiz-adv-x="409" />
<glyph unicode="&#xa0;" horiz-adv-x="409" />
<glyph unicode="!" horiz-adv-x="413" d="M156 49q0 38 45.5 72.5t77.5 34.5q10 0 14 -4l2 -5q-4 -18 -9.5 -46.5t-8 -39t-6.5 -28.5t-7.5 -24t-9.5 -15.5t-13 -13.5t-17 -8t-23 -7q-16 0 -26 7.5t-13.5 22.5t-4.5 25.5t-1 28.5zM311 406q0 58 49.5 189t125.5 298.5t85 189.5q7 18 35 74t51 103.5t23 56.5 q0 2 -8 3t-17 5.5t-12 15.5q1 13 33.5 23t68.5 10q64 0 64 -28q0 -7 -4 -15q-24 -28 -122 -214.5t-191 -394.5t-93 -267q0 -11 7.5 -22t7.5 -17q0 -19 -27 -34t-51 -15q-25 0 -25 39z" />
<glyph unicode="&#x22;" horiz-adv-x="831" d="M182 821h2q67 67 137 161t70 142q0 17 -8 25l-2 2q-19 19 -19 45q0 40 33 66l2 2v-2q51 47 88 47q21 0 29 -17q14 -46 14 -67q0 -16 -9 -30.5t-11 -20.5l2 -3q-27 -80 -74.5 -152t-95.5 -115t-88 -68t-59 -25q-11 0 -11 10zM451 836v2l2 2q66 66 135 159.5t69 141.5 q0 16 -8 24v2q-18 18 -18 45q0 41 31 66l4 2q51 45 86 45q20 0 28 -16q15 -49 15 -68q0 -15 -8.5 -29t-10.5 -22v-2q-27 -80 -74.5 -152t-95.5 -115.5t-88 -68.5t-59 -25q-8 0 -8 9z" />
<glyph unicode="#" horiz-adv-x="1376" d="M-14 410q0 15 21.5 24.5t42.5 11.5l22 3h288q21 55 111 303l-172 -2q-70 -2 -116 9.5t-46 33.5q0 14 21.5 23t43.5 11l21 2q183 0 275 -2l24 69t28.5 81.5t27 72.5t26 57.5t19.5 20.5q14 0 14 -38q0 -39 -8.5 -94.5t-18.5 -84.5l-32 -86q55 0 165.5 -1t167.5 -1 q112 297 142 303q16 0 16 -36t-10 -93.5t-21 -85.5l-32 -86q49 0 150.5 3t150.5 3q40 0 45 -8q2 -2 2 -6q0 -19 -82 -41t-129 -22h-166q-95 -252 -113 -303h250q88 0 88 -19q0 -21 -80 -40t-131 -19l-157 -2q-11 -30 -26 -71.5t-24 -66.5t-21 -55.5t-20.5 -47.5t-18.5 -33.5 t-20 -23.5t-20 -7q-22 0 -22 36q0 39 13 83.5t40.5 108t32.5 77.5l-342 -2q-15 -38 -36.5 -96.5t-32.5 -87t-26 -61t-28 -45.5t-27 -13q-23 0 -23 34q0 38 16 84t44 104.5t37 80.5h-183q-161 0 -161 41zM436 449h340q64 186 107 305l-334 -2q-95 -252 -113 -303z" />
<glyph unicode="$" horiz-adv-x="1171" d="M83.5 89q-0.5 6 1.5 21t7 26t18 20.5t31 9.5q3 0 5 -10.5t4.5 -27.5t7.5 -28q19 -39 54.5 -53t98.5 -14q52 173 166 477q-47 18 -73 28.5t-64 31.5t-57.5 41.5t-34.5 53t-15 70.5q0 123 134.5 218t314.5 116q59 155 79.5 195.5t43.5 40.5q2 0 5.5 -1t4.5 -1 q10 -10 10 -23q0 -15 -12.5 -48t-36 -85.5t-31.5 -73.5h19q85 0 117 -38t32 -99q0 -6 -2.5 -19t-7.5 -32.5t-17.5 -33t-29.5 -13.5q-10 0 -10 10q0 4 4 25.5t4 35.5q0 101 -133 105q-116 -301 -172 -455q126 -48 164 -71q85 -53 86 -128q0 -117 -132 -229t-311 -139 q-57 -197 -57 -260q0 -16 3.5 -28.5t8.5 -19t10.5 -10.5t8.5 -6l4 -2q0 -8 -3 -15.5t-7 -12.5t-9.5 -8.5t-11 -6t-10 -4t-6.5 -1.5l-2 -1q-39 0 -39 96q0 94 51 273q-18 -2 -57 -2q-156 2 -156 96q0 3 -0.5 9zM313 768q0 -68 50 -111.5t139 -78.5q1 3 10 26l150 408 q-74 -6 -151.5 -35.5t-137.5 -85.5t-60 -123zM369 35q105 9 202.5 71.5t124.5 147.5q11 32 11 63q0 34 -14 61.5t-42.5 48t-56.5 35t-70 30.5q-99 -274 -155 -457z" />
<glyph unicode="%" horiz-adv-x="1220" d="M166 772q0 66 72 182t168.5 207.5t156.5 91.5q90 0 90 -96q0 -19 -8 -59q4 -4 17 -4q70 0 183 34t198.5 68.5t89.5 34.5q18 0 32 -14q9 -9 9 -19q0 -16 -17 -33q-160 -185 -366 -452t-373.5 -519t-167.5 -319q0 -14 5.5 -24.5t11 -16.5t5.5 -8q0 -9 -16.5 -18t-24.5 -9 q-30 0 -30 49q0 67 39 172q44 121 342.5 531.5t472.5 605.5q-87 -42 -215 -80t-205 -39q0 -1 1 -4.5t1 -5.5q0 -31 -36.5 -93.5t-88.5 -125.5t-115.5 -110.5t-111.5 -47.5h-27q-45 0 -68.5 41.5t-23.5 79.5zM248 760q0 -58 41 -58q48 0 123 67.5t128.5 147.5t53.5 117 q-14 7 -31.5 27t-28.5 37l-10 16q-37 0 -104 -67t-119.5 -153t-52.5 -134zM514 -23q0 66 72 182t168.5 208t156.5 92q90 0 90 -94q0 -22 -8 -62q3 -4 17 -6q12 -3 12 -14q0 -9 -9.5 -19.5t-29.5 -17.5q0 -1 1 -4.5t1 -5.5q0 -31 -36.5 -94t-88.5 -126.5t-115.5 -111 t-111.5 -47.5h-27q-45 0 -68.5 41t-23.5 79zM596 -35q0 -55 41 -55q48 0 123 67.5t128.5 147t53.5 115.5q-14 8 -31.5 27.5t-28.5 35.5l-10 16q-37 0 -104 -66.5t-119.5 -152.5t-52.5 -135z" />
<glyph unicode="&#x26;" horiz-adv-x="1765" d="M86 195q0 116 109 231.5t303 181.5q-129 10 -197 58t-68 127q0 98 58.5 182.5t152 142t210.5 99t234.5 60.5t223.5 19q159 0 258.5 -47.5t99.5 -136.5q0 -72 -49 -134.5t-120 -101t-144 -60t-127 -21.5q-18 0 -18 12q0 7 7.5 12.5t18.5 5.5q59 0 129.5 38t122 101.5 t51.5 127.5q0 81 -70.5 122t-193.5 41q-83 0 -180 -17.5t-197.5 -56t-182 -91t-133.5 -130.5t-52 -167q0 -43 36.5 -71.5t88 -40t114.5 -11.5q46 0 112.5 14t78.5 14q37 0 37 -24q0 -20 -33.5 -39.5t-99.5 -24.5q-212 -57 -330.5 -170t-118.5 -229q0 -97 87 -160t249 -63 q122 0 228 26t179.5 68t126.5 96t78 110t25 109q0 74 -49.5 121t-139.5 47q-84 0 -139 -28t-55 -86q0 -10 6 -34t6 -36q0 -14 -14 -14q-16 0 -35.5 21t-19.5 52q0 51 28 90.5t74 61t97 32.5t104 11q93 0 266 -48t260 -48q24 0 49.5 8t30.5 8q14 0 14 -10q0 -28 -40 -44 t-97 -16q-81 0 -145 11t-135.5 34.5t-75.5 24.5q42 -20 73 -67t31 -101q0 -116 -127 -222t-311.5 -167t-360.5 -61q-194 0 -296.5 73t-102.5 185z" />
<glyph unicode="'" horiz-adv-x="428" d="M281 682v4q67 67 136.5 161t69.5 142q0 15 -8 23l-2 2q-18 18 -18 45q0 39 33 65l4 2q51 45 86 45q20 0 28 -16q17 -35 17 -65q0 -35 -21 -56q-27 -80 -74.5 -152t-95.5 -115t-88 -68t-59 -25q-8 0 -8 8z" />
<glyph unicode="(" horiz-adv-x="548" d="M-37 307q0 193 62 400q28 93 80 186.5t132 183.5t176 159t220 111t256 42h2q27 -6 27 -25q0 -21 -30.5 -46.5t-53.5 -25.5q-109 -2 -213 -40.5t-184 -100t-148.5 -140t-113.5 -159t-71 -158.5q-77 -228 -77 -444q0 -135 37 -224t116 -108q24 -1 36.5 -10t12.5 -19 q0 -9 -8.5 -15.5t-23.5 -6.5q-74 0 -128 60t-80 158.5t-26 221.5z" />
<glyph unicode=")" horiz-adv-x="813" d="M-63 -92q0 27 31 62.5t59 35.5q85 0 178 60t177.5 160.5t157.5 215t134 240.5h2q94 195 94 365q0 125 -67 200.5t-218 75.5h-16q-10 0 -27.5 14.5t-17.5 26.5q0 16 63 16q94 0 162.5 -28t106.5 -78.5t55.5 -112t17.5 -137.5q0 -178 -79 -373q-89 -214 -220 -387.5 t-283.5 -276t-293.5 -102.5h-2q-14 6 -14 23z" />
<glyph unicode="*" horiz-adv-x="415" d="M43 1149q0 47 123 76q-34 13 -53.5 21t-44.5 27t-25 38q0 14 10.5 21t22.5 7q25 0 55 -22.5t53 -50.5q-12 46 -12 84q0 58 39 61q37 -5 37 -59q0 -22 -15 -84q75 75 109 75q12 0 20 -8q11 -11 11 -20q0 -41 -123 -88q121 -35 121 -82q0 -14 -10 -22.5t-23 -8.5 q-39 0 -102 68q16 -72 16 -90q0 -52 -39 -52q-43 0 -43 58q0 30 14 84q-66 -66 -106 -66q-13 0 -24 8t-11 25z" />
<glyph unicode="+" horiz-adv-x="776" d="M118 319q0 1 0.5 4t0.5 5q0 16 17 30t42 17l203 -4q4 12 18.5 62t24.5 77.5t26 65.5t33.5 56.5t36.5 18.5q14 0 17 -12q0 -24 -24.5 -110.5t-53.5 -159.5q3 0 70 2t110 2q72 0 90 -6q16 -10 16 -17q0 -14 -50 -19.5t-132 -9t-123 -10.5q-30 -121 -110 -286 q-25 -52 -35 -52t-10 31q0 43 8 55q18 57 36 117.5t27.5 98t8.5 40.5q0 -4 -191 -4q-17 0 -28.5 0.5t-17 1.5t-8 3t-2.5 3z" />
<glyph unicode="," horiz-adv-x="413" d="M2 -336q69 71 138 164t69 139q0 17 -8 25h-2q-19 22 -19 49q0 37 33 63l4 2q51 46 86 46q21 0 29 -17q14 -46 14 -67q0 -16 -9 -31t-11 -21q-27 -81 -74.5 -153t-95.5 -115.5t-87.5 -68.5t-58.5 -25q-8 0 -8 6v4z" />
<glyph unicode="-" horiz-adv-x="591" d="M47 274q0 13 5.5 24.5t14.5 19t20 14t21.5 10.5t19.5 7t14 4l5 1q15 0 15 -10q0 -12 -10 -22q119 -9 172 -9q40 0 65 2q74 2 105 4q36 0 36 -12q0 -21 -138.5 -40t-254.5 -19q-7 0 -21 1t-20 1q-3 0 -9 -1t-9 -1q-13 0 -22 7t-9 19z" />
<glyph unicode="." horiz-adv-x="505" d="M231 53q0 35 48 70t75 35q4 0 8 -4q-24 -118 -33 -138q-23 -41 -63 -43q-35 0 -35 80z" />
<glyph unicode="/" horiz-adv-x="1236" d="M41 -188q0 99 110.5 302t269 422.5t320 424t278.5 337t130 132.5q25 0 39 -17q10 -15 10 -22q0 -18 -18 -39q-186 -213 -431 -530t-442.5 -613t-197.5 -373q0 -22 14 -40l14 -19q0 -10 -18.5 -20.5t-28.5 -10.5q-49 0 -49 66z" />
<glyph unicode="0" horiz-adv-x="651" d="M68 133q0 47 10.5 111t30.5 137t52.5 144t72 128.5t94 93t114.5 35.5q144 0 144 -209q0 -137 -47.5 -277t-137.5 -238.5t-196 -98.5q-137 0 -137 174zM164 154q0 -129 65 -129q44 0 85.5 32t74 86.5t57.5 114.5t43 127q31 97 31 190q0 121 -74 121q-66 0 -133.5 -95 t-108 -222t-40.5 -225z" />
<glyph unicode="1" horiz-adv-x="563" d="M82 477q-5 19 12 25q48 25 100 64.5t87 72.5t86 84l22 33q12 33 68 37q10 2 32 2q39 0 23 -37q-1 -3 -16.5 -30.5t-21 -39t-21.5 -42.5t-25.5 -51.5t-25 -54t-27.5 -63t-26 -65t-26.5 -73.5t-23.5 -77q-6 -22 -20.5 -55t-18.5 -49q8 -3 10.5 -13.5t0.5 -26t-5 -31t-7 -32 t-5 -24.5q-3 -21 -27.5 -41.5t-48.5 -20.5q-39 0 -39 37q0 19 8 43q31 90 62 176.5t46.5 129.5t29 81.5t18 57.5t4.5 32q0 8 -3 15t-3 12q0 9 6 27q-99 -70 -196 -117q-4 -2 -11 -2q-15 0 -18 16z" />
<glyph unicode="2" horiz-adv-x="839" d="M33 -2.5q-5 19.5 0 39.5q6 39 145 88q85 39 170.5 95t162.5 123t127 144t54 146q2 34 -25.5 56t-82.5 22q-80 0 -200 -44.5t-200 -95.5q-4 -4 -12 -4q-14 0 -10 19q0 18 10 37t25 26q10 5 45.5 31t67 49t36.5 23t7 -4.5t1 -10.5q0 -11 -24 -35q196 78 325 78 q71 0 111.5 -28.5t36.5 -94.5q-2 -44 -24 -90.5t-56 -89.5t-81.5 -87.5t-96.5 -83t-105 -77.5t-103 -69t-95 -60q-20 -12 -29 -18q63 21 183 39t212 18q37 0 62.5 -2t54 -8.5t43 -21.5t14.5 -39q0 -41 -27 -90.5t-42 -49.5q-4 0 -6 4t-2 8v5q26 35 26 67q0 31 -30.5 46.5 t-77.5 15.5q-96 0 -273 -27q-6 -1 -37 -6t-41 -6.5t-38.5 -6.5t-41.5 -8t-37.5 -8t-39.5 -9t-33 -9.5t-33 -11.5q-11 -4 -16 15.5z" />
<glyph unicode="3" horiz-adv-x="1003" d="M-6 -156q0 78 49.5 139t124 91t156.5 30q22 0 22 -18q0 -12 -22 -12q-87 0 -164.5 -62t-77.5 -157q0 -89 57 -134t158 -45q136 0 258 57.5t198 160.5t76 225q0 94 -57 150.5t-186 56.5q-45 0 -118.5 -16.5t-90.5 -16.5q-16 0 -24.5 9t-8.5 22q0 19 14.5 35t36.5 16 q54 0 113 7.5t123.5 26.5t115.5 47t84 73t33 100q0 34 -28.5 56t-83.5 22q-80 0 -197.5 -44.5t-194.5 -95.5q-4 -4 -12 -4q-12 0 -12 19q0 18 9.5 37t23.5 26q10 5 44 31t64 49t35 23q10 0 10 -15q0 -5 -2.5 -10t-5.5 -8.5t-7.5 -9t-6.5 -7.5q191 78 321 78q154 0 154 -123 q0 -45 -31 -93t-78 -84.5t-101 -64t-101 -36.5q278 -3 278 -228q0 -134 -93 -254t-247.5 -191t-327.5 -71q-280 0 -280 213z" />
<glyph unicode="4" horiz-adv-x="905" d="M9 0q-8 32 7 53q3 4 7 6q68 35 384.5 308t399.5 356l22 33q12 33 68 37q10 2 33 2q38 0 22 -37q-90 -167 -223 -520q-10 -21 -37 -99h33q37 0 62.5 -2t54 -8.5t43 -21.5t14.5 -39q0 -41 -27.5 -90.5t-42.5 -49.5q-4 0 -6 4t-2 8v5q27 36 27 67t-31 46.5t-78 15.5 q-9 0 -32.5 -1t-36.5 -1q-76 -225 -80 -244q8 -3 10.5 -13.5t0.5 -26t-5 -31t-7 -32t-5 -24.5q-3 -21 -27.5 -41t-48.5 -20q-39 0 -39 36q0 19 8 43l121 349q-210 -16 -467 -54q-17 -3 -54 -14.5t-50 -17.5q-13 -4 -18 18zM139 92q13 0 19 2q205 27 465 41l141 402 q17 51 0 50q-6 -1 -16 -7q-18 -13 -260.5 -210t-348.5 -278z" />
<glyph unicode="5" horiz-adv-x="1003" d="M93 -62q35 91 131 138q69 35 153 35q10 0 15 -6t5 -13q0 -10 -20 -10q-51 0 -95.5 -20t-70.5 -52.5t-41.5 -71t-9 -77.5t28 -71.5t69.5 -52.5t115 -20q196 0 326 109t130 293q0 95 -58.5 157t-186.5 62q-111 0 -207 -45q-14 -7 -23.5 5t-9.5 26q0 16 27 26 q20 43 59 149.5t49 131.5q-15 6 0 63q3 20 30.5 30t88.5 21q158 33 344 33q37 0 62.5 -2t54 -8.5t43 -21.5t14.5 -39q0 -41 -27 -90.5t-42 -49.5q-4 0 -6.5 4.5t-2.5 8.5v4q27 36 27 67q0 54 -125 54q-193 0 -346 -35q-66 -119 -143 -312q48 27 118 27q65 0 116.5 -5.5 t101 -21t82.5 -41.5t53 -69t20 -101q0 -134 -79.5 -243t-214 -169.5t-296.5 -60.5q-178 0 -244 97q-51 74 -15 167z" />
<glyph unicode="6" horiz-adv-x="1153" d="M109 201q3 79 38.5 165.5t90.5 165.5t131.5 162t155 152.5t169.5 140t165 122.5t151 101q28 18 44.5 19.5t19.5 -10.5t1.5 -26t-6.5 -32q-8 -25 -72 -69.5t-114 -67.5q-127 -76 -243 -168.5t-214.5 -198.5t-158.5 -223t-64 -225q-3 -71 37 -109.5t100 -38.5 q163 0 312.5 96t250.5 246q56 82 54 163t-66 87q-81 9 -168.5 -40.5t-154.5 -129.5t-113.5 -176.5t-53.5 -179.5q-2 -20 -12.5 -27.5t-20.5 0t-10 25.5q-2 69 26.5 151t81.5 160t120 142t151 101.5t166 35.5q70 -2 109 -47.5t28 -139.5q-15 -105 -92 -204t-183 -166.5 t-228 -108.5t-230 -41q-89 0 -145.5 46t-52.5 147z" />
<glyph unicode="7" horiz-adv-x="860" d="M35 518q0 12 1.5 24.5t5.5 27t7 23.5t9.5 27.5t9.5 26.5q9 30 32 81t41 52q5 0 7.5 -3.5t2 -11.5t-2.5 -17.5t-6 -23t-8 -24t-9 -26t-8 -25.5q72 117 237 117q94 0 229 -12.5t191 -22.5q56 45 68 45q18 0 42.5 -21t26.5 -36q0 -10 -4 -12q-151 -124 -275 -242 t-182.5 -181.5t-144.5 -164.5q-70 -82 -135.5 -215.5t-65.5 -225.5q0 -5 1 -15t1 -15q0 -7 -6 -12t-14 -5q-14 0 -21.5 11t-8.5 21.5t-1 29.5q0 99 57 225t130 227q213 282 501 543q-129 14 -346 14q-216 0 -278 -190q-12 -35 -45 -35q-16 0 -27.5 11.5t-11.5 29.5z" />
<glyph unicode="8" horiz-adv-x="839" d="M66 145q0 145 282 336q72 45 94 56q-86 64 -127 129t-24 155q24 119 142 195t261 76q229 0 180 -203q-2 -10 -17 -26t-28 -15q-8 2 -9.5 4t1.5 10q0 7 6 19q16 52 -10 90.5t-70.5 54t-93.5 12.5q-44 -2 -86 -11.5t-82.5 -29t-69.5 -54.5t-38 -81q-8 -25 -5 -51t7 -46 t17.5 -41.5t25.5 -37.5t32 -34.5t36.5 -32.5t39.5 -31q55 31 89.5 51t85.5 53t83 58.5t69.5 61.5t58.5 69.5t35 74t14 82.5q0 47 30 60q24 11 37 -14q10 -22 4 -58q-12 -66 -44.5 -124.5t-63.5 -96t-99.5 -86t-102 -68.5t-120.5 -68q-26 -15 -39 -22q12 -8 35 -25 q44 -31 66.5 -47.5t55 -46t47 -53t23.5 -55.5t3 -66q-9 -56 -68.5 -119t-148.5 -108q-83 -43 -171.5 -64t-166 -16.5t-127 51.5t-49.5 133zM158 160q-15 -96 81 -127q92 -30 222 10q133 42 194 126q26 35 33 73q9 51 -20 99.5t-60 74t-101 74.5q-19 13 -28 20 q-117 -73 -180 -133q-55 -51 -95.5 -113.5t-45.5 -103.5z" />
<glyph unicode="9" horiz-adv-x="1048" d="M89 -49.5q2 12.5 9 22.5q10 15 47.5 41.5t67.5 42.5q11 5 27 5t24 4q98 60 187 125t182 151.5t160 173.5t110 191.5t43 205.5q0 86 -49 120t-139 34q-56 0 -126 -20.5t-142.5 -61t-133 -93.5t-99 -126.5t-38.5 -151.5q0 -80 64 -92q80 -16 173.5 19.5t168.5 101 t129.5 151.5t64.5 167q2 20 12.5 27t20 -1t8.5 -26q1 -86 -52.5 -181t-136 -169.5t-192 -118t-211.5 -31.5q-133 11 -133 162q0 136 99 252.5t243 179.5t287 63q140 0 195 -50.5t55 -152.5q0 -70 -19 -141.5t-49.5 -134t-79.5 -128.5t-97 -119.5t-115 -112.5t-121.5 -102 t-127 -94.5t-121 -83.5t-114.5 -75q-23 -14 -40.5 -17.5t-26.5 3t-12.5 17.5t-1.5 23.5z" />
<glyph unicode=":" horiz-adv-x="413" d="M184 211q0 38 45.5 72t77.5 34q11 0 15 -4l2 -2q-25 -119 -32 -137q-15 -39 -51 -44q-8 -1 -18 -1q-39 0 -39 82zM270 631q0 38 46.5 73t78.5 35q9 0 13 -4l2 -4q-25 -119 -32 -137q-15 -39 -51 -44q-8 -1 -18 -1q-39 0 -39 82z" />
<glyph unicode=";" horiz-adv-x="413" d="M57 -279q14 21 58 77.5t69 97.5t25 67q0 13 -14.5 37.5t-14.5 40.5q0 37 33 63l4 2q51 46 86 46q21 0 29 -17q14 -46 14 -67q0 -16 -9 -31t-11 -21q-24 -77 -60.5 -140t-73 -98.5t-67.5 -54t-51 -18.5q-17 0 -17 14v2zM299 408q0 42 41 82t80 40q11 0 14 -6v-2 q-5 -23 -11.5 -58.5t-9.5 -46.5t-9 -29.5t-13.5 -24t-19.5 -12t-31 -11.5q-18 0 -27.5 11t-11.5 23.5t-2 33.5z" />
<glyph unicode="&#x3c;" horiz-adv-x="651" d="M174 524q0 19 49 92t117.5 165t75.5 102q13 22 39 22q14 0 14 -12q0 -13 -83.5 -138.5t-119.5 -174.5q3 -4 31.5 -39t53 -65.5t52.5 -68t45 -65t17 -37.5q0 -26 -21 -26l-16 8q-46 62 -104.5 113t-143.5 112q-6 6 -6 12z" />
<glyph unicode="=" horiz-adv-x="817" d="M219 270q0 13 5.5 24.5t14.5 19t20 14t21.5 10.5t19.5 7t14 4l5 1q15 0 15 -10q0 -13 -10 -23q106 -8 172 -8q40 0 65 2q74 2 105 4q36 0 36 -12q0 -21 -138.5 -40t-254.5 -19q-7 0 -21 1t-20 1q-3 0 -9 -1t-9 -1q-13 0 -22 7t-9 19zM227 438q0 13 5.5 24.5t14.5 19 t20.5 14t22 10.5t19.5 7t14 4l5 1q14 0 14 -10q0 -13 -10 -23q106 -8 172 -8q40 0 65 2q74 2 105 4q37 0 37 -12q0 -21 -139 -40t-255 -19q-7 0 -21 1t-20 1q-3 0 -9 -1t-9 -1q-13 0 -22 7t-9 19z" />
<glyph unicode="&#x3e;" horiz-adv-x="651" d="M174 276q0 13 84 139.5t119 174.5q-201 238 -201 274q0 27 23 27l16 -8q32 -43 77 -86t78.5 -69.5t92.5 -70.5q6 -3 6 -12q0 -19 -50 -92.5t-118 -163.5t-76 -102q-15 -23 -39 -23q-12 0 -12 12z" />
<glyph unicode="?" horiz-adv-x="950" d="M219 20v3q0 34 48.5 69t74.5 35q6 0 6 -4q-22 -115 -29 -133q-16 -42 -55 -46q-5 -1 -12 -1q-33 0 -33 77zM270 983q0 54 39 107q81 109 247 182.5t321 73.5q122 0 200 -54t78 -164q0 -57 -34 -117t-75 -106t-135 -115.5t-151.5 -108t-186.5 -120.5q-19 -12 -28 -18 q-36 -23 -62 -55t-37.5 -56t-26 -61t-22.5 -52h-2q-11 -14 -22 -14q-14 0 -25.5 19t-11.5 47q0 61 49 123q21 27 80 67.5t128 80.5t146.5 95t139 109.5t102.5 125t41 140.5t-54 112t-167 42q-106 0 -202.5 -33t-160 -97.5t-63.5 -146.5q0 -31 5 -52.5t12 -31t15.5 -15.5 t15.5 -7t12 -3.5t5 -7.5q0 -16 -14.5 -24t-32.5 -8q-44 0 -83.5 42t-39.5 101z" />
<glyph unicode="@" horiz-adv-x="1646" d="M18 567q0 98 28 190t74.5 167t111.5 142.5t134 118t146 91.5q-12 0 -85 -4t-105 -4q-52 0 -52 16q0 49 353 49h53q199 58 389 58q90 0 163.5 -15.5t135.5 -50t96.5 -97t34.5 -149.5q0 -75 -37 -170q60 -108 60 -219q0 -134 -83 -263.5t-212.5 -222.5t-292.5 -150.5 t-318 -57.5q-131 0 -242.5 44.5t-188.5 121t-120 181.5t-43 224zM100 530q0 -94 29 -178.5t84 -152t144 -107t200 -39.5q108 0 229.5 32.5t234.5 93t205.5 138t148 177t55.5 200.5q0 53 -19 115q-40 -105 -145 -241t-226.5 -236.5t-195.5 -100.5q-63 0 -78 80q0 90 68 318 q-273 -379 -394 -379q-27 0 -38 17.5t-11 56.5q0 69 35 184.5t84.5 224t110.5 187.5t108 79h6l23 17q18 20 57 20q31 0 86 -16t62 -16t21 16t32 16q51 0 51 -43q0 -14 -5.5 -34t-11 -33.5t-16 -35.5t-12.5 -28q-1 -5 -18 -13t-19 -13q-49 -137 -83 -281.5t-34 -181.5 q0 -64 37 -64q48 0 149.5 110.5t194 250t123.5 225.5q-50 93 -129 163.5t-175 112.5t-197 64t-209 27q-151 -49 -280.5 -164t-205.5 -266t-76 -302zM485 381q0 -35 21 -35q43 0 154 126t143 177q50 81 93.5 176t43.5 127q0 13 -10 13h-6q-14 -1 -44 4t-49 4q-28 0 -61 -8 q-31 -8 -100 -118.5t-127 -250.5t-58 -215zM811 1307q195 -21 353 -102.5t237 -215.5q12 53 12 101q0 253 -323 253q-138 0 -279 -36z" />
<glyph unicode="A" horiz-adv-x="1267" d="M82 0q0 1 4 33q41 229 207 520q-17 0 -47.5 -1t-55.5 -1q-20 0 -20 14q0 15 17.5 32t37.5 17h103q99 161 233.5 337.5t269.5 326.5q-12 16 -12 33q0 22 22 42.5t68 20.5q23 0 35 -12t12 -31q0 -13 -6 -28q36 -95 88 -309t74 -378q68 -3 68 -22l-62 -31q0 -7 14 -107 q16 -106 33 -235.5t17 -173.5q0 -21 -29.5 -38t-56.5 -17q-25 0 -25 16v25q0 78 -16 270t-25 256q-627 -6 -655 -6q-183 -333 -213 -545q-2 -22 -41 -22h-9h-8h-6.5t-5.5 0.5t-4 1.5t-3.5 2.5t-2 4t-0.5 5.5zM403 610l621 4q-21 163 -68 348.5t-77 276.5 q-126 -132 -262 -310t-214 -319z" />
<glyph unicode="B" horiz-adv-x="1292" d="M168 1296q0 11 26.5 23t59.5 12h80q15 86 125 86q30 0 30 -20q0 -17 -20 -44t-20 -28q45 -4 87 -9.5t101.5 -18t109 -28t101.5 -41.5t88 -57.5t59 -77t23 -98.5q0 -59 -33.5 -116.5t-87 -102t-107 -77t-106.5 -54.5q58 4 102 4q60 0 115.5 -6t115 -23t103 -43.5t71.5 -71 t28 -102.5q0 -84 -46 -155.5t-121.5 -120.5t-172.5 -83.5t-197.5 -50.5t-198.5 -16q-95 0 -168 15q-11 -25 -39 -25q-31 0 -66.5 29.5t-35.5 50.5q0 7 7 13t16 6q2 0 4.5 -1t9 -2.5t12.5 -3.5q-16 76 -16 224q0 223 35 517.5t80 479.5h-109q-45 3 -45 16zM295 381 q0 -210 12 -336q78 -16 180 -16q113 0 220 19t203.5 58.5t155 111t58.5 165.5q-1 66 -46.5 112.5t-120.5 69t-147.5 32t-152.5 9.5q-31 0 -63.5 -1.5t-56.5 -3.5t-61 -7t-55 -7.5t-61.5 -9t-58.5 -8.5q-6 -53 -6 -188zM305 635l7 -1q6 0 17 -0.5t23 -0.5q23 0 66.5 5.5 t112 17.5t135.5 38t127 62t97.5 94t37.5 129q0 13 -4 45q-19 60 -78 108.5t-137.5 77t-145.5 44t-129 22.5h-2q-27 -80 -74 -316t-53 -325z" />
<glyph unicode="C" horiz-adv-x="1400" d="M121 561q0 126 32 242.5t97.5 215.5t157.5 172.5t219 115t274 41.5q359 0 359 -250q0 -61 -23.5 -94t-58.5 -33q-43 0 -43 39q0 25 20.5 65.5t20.5 57.5q0 48 -42.5 86t-104 57.5t-124.5 19.5q-155 0 -286 -63t-216.5 -167t-133.5 -237t-48 -274q0 -108 29.5 -204 t86 -172t148.5 -120.5t209 -44.5q107 0 204.5 27t160.5 62t120 85.5t82 80.5t48 63q10 10 14 10q10 0 10 -31q0 -80 -65 -148t-162 -109t-201 -64t-192 -23q-286 0 -439 159.5t-153 434.5z" />
<glyph unicode="D" horiz-adv-x="1587" d="M188 1260q0 22 20.5 44.5t53.5 22.5h80q8 46 32.5 68t74.5 22q28 0 28 -22q-12 -27 -24 -62h53q140 0 274.5 -21.5t263.5 -70t226 -119.5t156 -178.5t59 -238.5q0 -100 -40 -191.5t-107.5 -162.5t-157.5 -132t-189 -104t-202 -73.5t-197 -45t-174 -14.5q-104 0 -166 24 t-62 62q0 16 15 16q6 0 12 -2q-14 71 -14 199q0 214 38 500.5t85 469.5h-17q-22 0 -62.5 -6t-43.5 -6q-15 0 -15 21zM293 322q0 -72 2 -107q3 -99 38.5 -138.5t145.5 -39.5q188 0 429 113t349 253q81 103 116.5 190t35.5 179q0 93 -42 169t-106.5 125t-155 86t-173 56 t-175.5 30.5t-148.5 14t-104.5 2.5h-72q-139 -470 -139 -933z" />
<glyph unicode="E" horiz-adv-x="1181" d="M113 10q0 16 24.5 41t46.5 29q-2 10 -2 41q0 121 45 522h-26q-21 0 -21 14q0 15 16.5 32t36.5 18q48 389 97 571h-109q-45 3 -45 16q0 10 26.5 21.5t59.5 11.5h80q10 53 39 71.5t78 18.5q30 0 30 -20q0 -12 -13.5 -37t-16.5 -31q7 0 36 -0.5t85.5 -1t132.5 -0.5 q33 0 149 1t201 1q31 0 31 -31q0 -24 -21.5 -57t-42.5 -33q-8 0 -17 12.5t-22 26t-30 15.5q-35 4 -175 4q-20 0 -51 -1t-45 -1q-10 0 -252 4q-30 -103 -62.5 -272.5t-47.5 -288.5q462 0 585 6q13 0 13 -13q0 -15 -21 -33.5t-57 -23.5h-529q-30 -318 -30 -453q0 -83 8 -127 q27 0 200 -1t332 -1q133 0 236 33h2q8 0 8 -20q0 -25 -16 -49.5t-45 -24.5q-44 0 -139.5 -1t-145.5 -1q-14 0 -104 -0.5t-163.5 -0.5t-160.5 1t-137.5 4t-50.5 8z" />
<glyph unicode="F" horiz-adv-x="1105" d="M164 29q7 86 18 191t24.5 231.5t20.5 193.5h-24q-21 0 -21 14q0 15 16.5 32t37.5 18q41 339 96 571h-109q-45 3 -45 16q0 10 26.5 21.5t59.5 11.5h80q10 52 38.5 70t76.5 18q30 0 30 -20q0 -9 -4.5 -19.5t-12 -24t-11.5 -22.5q7 0 36 -0.5t85.5 -1t132.5 -0.5q33 0 149 1 t201 1q31 0 31 -31q0 -24 -21.5 -57t-42.5 -33q-8 0 -17 12.5t-22 26t-30 15.5q-35 4 -175 4q-20 0 -51 -1t-45 -1q-10 0 -252 4q-63 -199 -116 -561q465 0 591 6q13 0 13 -13q0 -15 -21 -33.5t-57 -23.5h-535q-51 -406 -51 -514q17 -3 17 -43q0 -104 -68 -104 q-22 0 -35.5 12t-13.5 33z" />
<glyph unicode="G" horiz-adv-x="1597" d="M121 559q0 126 35 242.5t106.5 216t172 173t240 115.5t302.5 42q395 0 395 -250q0 -60 -25.5 -93.5t-64.5 -33.5t-39 22q0 13 20.5 58.5t20.5 68.5q0 86 -87 131t-216 45q-142 0 -265 -40.5t-212.5 -111t-154 -164t-96.5 -202t-32 -223.5q0 -108 29.5 -204t86 -172 t148.5 -120.5t209 -44.5q101 0 191.5 23t155 57.5t118 80t85 86t50.5 79.5q13 61 29 168h-473q-21 0 -21 14q0 15 18 32t38 17q445 0 624 7q13 0 13 -13q0 -15 -21 -33.5t-57 -23.5h-41q-2 -5 -12.5 -37t-15 -46.5t-13 -51t-12.5 -68t-7.5 -79.5t-3.5 -101q0 -16 3.5 -42 t3.5 -38q0 -37 -21 -61.5t-45 -24.5q-16 0 -27.5 13t-11.5 36q0 49 25 191q-57 -82 -154.5 -136t-196 -75t-202.5 -21q-285 0 -438.5 159t-153.5 433z" />
<glyph unicode="H" horiz-adv-x="1411" d="M164 25q0 187 49 589h-20q-21 0 -21 15q0 14 14.5 30t32.5 19q28 227 74 446q2 8 6.5 36.5t8 43t11 40.5t17.5 40.5t24.5 30.5t35 23.5t46.5 7.5q31 0 31 -21v-4q-102 -231 -172 -643q301 0 735 4q26 234 60 422v61q0 76 37 128.5t116 52.5q31 0 31 -21v-4 q-106 -241 -162 -639q10 0 26.5 1t20.5 1q13 0 13 -12q0 -14 -18 -31.5t-50 -24.5q-41 -321 -41 -520q2 -20 8 -33.5t6 -19.5q0 -28 -19 -43.5t-44 -15.5q-22 0 -35.5 12t-13.5 33q26 291 57 585h-735q-45 -298 -45 -499q0 -23 7 -45t7 -29q0 -27 -17 -42t-38 -15 q-18 0 -30.5 11t-12.5 30z" />
<glyph unicode="I" horiz-adv-x="937" d="M94 14q0 15 18 32t38 17h227q69 731 141 1100v62q0 8 2 20.5t2 20.5h-237q-21 0 -21 14q0 15 17.5 32t37.5 17h224q19 45 119 45q30 0 30 -20v-4l-12 -19q178 0 264 4q12 0 12 -12q0 -15 -20.5 -33.5t-56.5 -23.5h-224v-4q-77 -218 -129.5 -608t-52.5 -558q0 -24 6 -33 q209 3 295 7q12 0 12 -13q0 -15 -20.5 -33.5t-56.5 -23.5h-242q-19 -16 -45 -16t-39 16h-268q-21 0 -21 14z" />
<glyph unicode="J" horiz-adv-x="1056" d="M80 303q0 39 18 39q5 0 17 -24.5t28 -61.5t41 -80t52.5 -80t66.5 -61.5t80 -24.5q26 0 47.5 14t35 33.5t24.5 50.5t16.5 55t11.5 58q91 531 127 928q-4 2 -4 20q0 21 12 97h-245q-21 0 -21 14q0 15 17.5 32t37.5 17h234q13 26 40.5 41.5t59.5 15.5q31 0 31 -20v-4 l-14 -31q143 0 221 4q12 0 12 -12q0 -15 -21 -33.5t-57 -23.5h-182l-6 -23q-64 -285 -90 -534q-4 -35 -11 -108q-7 -80 -11.5 -121.5t-13.5 -116t-18 -115.5t-22.5 -99t-30 -90.5t-38.5 -65.5t-50 -47t-61 -14q-70 0 -151 69t-132 156.5t-51 145.5z" />
<glyph unicode="K" horiz-adv-x="1300" d="M150 709q0 10 14 10q14 -14 59 -14h17q27 229 57 399v61q0 76 37.5 128.5t116.5 52.5q30 0 30 -21v-4q-103 -233 -155 -606q15 4 50 11t50 13q125 49 244.5 121t209.5 147t157 139t120 120t66 67q-4 4 -4 10q0 21 36 42.5t66 21.5q29 0 29 -23q0 -45 -113.5 -154.5 t-266 -224t-315.5 -213.5t-254 -126q-57 -17 -57 -45q0 -18 25 -43q226 -239 326 -332q241 -224 362 -234q37 0 60 33.5t30.5 78t7.5 101.5q0 20 -3 50.5t-3 41.5q0 33 18 33q41 0 41 -120v-5q0 -72 -18.5 -128t-47.5 -87t-61 -47t-63 -16q-73 0 -196 85.5t-244 203 t-242 256.5q-15 12 -35 32q-31 -256 -31 -428q2 -21 8.5 -34t6.5 -19q0 -28 -19.5 -43.5t-44.5 -15.5q-22 0 -35.5 12t-13.5 33q36 396 55 571q-77 85 -77 109z" />
<glyph unicode="L" horiz-adv-x="1185" d="M115 10q0 15 23 39t46 31q62 676 121 1024v61q0 76 37.5 128.5t116.5 52.5q30 0 30 -21q0 -16 -22.5 -66t-24.5 -57q-77 -217 -120 -572t-43 -534q0 -15 6 -33q29 0 209 -1t335 -1q133 0 236 33h2q8 0 8 -20q0 -22 -10 -37.5t-30 -24t-41.5 -13t-52.5 -5t-55.5 0t-57.5 2 t-52 1.5q-82 0 -251 1t-253 1q-19 -16 -45 -16t-39 16h-59q-14 0 -14 10z" />
<glyph unicode="M" horiz-adv-x="1546" d="M113 18v11q85 630 215 1095q0 7 6 19q-15 12 -15 47q0 82 27.5 115.5t63.5 33.5q14 0 20 -2l14 4q15 5 27 5q29 0 29 -19q0 -15 -28 -66.5t-30 -58.5l-24 -61q4 -103 17 -204t38 -203t59 -178.5t85 -124.5t112 -48q46 0 107 36.5t134 110.5t155.5 207t156.5 305l6 62v10 q0 10 -3 32.5t-3 31.5q0 168 141 168q33 0 33 -23q0 -17 -17.5 -64t-19.5 -57q-84 -294 -84 -880q0 -183 6 -226q2 -23 9.5 -35.5t7.5 -19.5q0 -28 -16.5 -42.5t-41.5 -14.5q-21 0 -36 10.5t-15 28.5q3 541 23 886q-79 -166 -163.5 -291.5t-158.5 -195.5t-136 -103.5 t-112 -33.5q-75 0 -137.5 62t-103.5 165.5t-67 213.5t-40 230q-67 -216 -115.5 -460t-58.5 -381q0 -20 4 -40.5t4 -27.5q0 -29 -16 -46t-31 -17q-28 0 -28 34z" />
<glyph unicode="N" horiz-adv-x="1392" d="M176 78q12 263 150 1050q-2 12 -2 37q0 178 122 178q48 0 48 -18q0 -23 -27 -79t-27 -66q0 -59 41.5 -131t113.5 -151t148.5 -155t169 -171t152.5 -169l18 -24l33 301q19 194 60 422v61q0 40 4 67.5t16 55.5t39 42.5t68 14.5q30 0 30 -20v-4q-78 -178 -128.5 -459 t-71.5 -575q22 -62 22 -129q0 -61 -20 -115v-12q-4 -22 -18.5 -34.5t-29.5 -12.5q-36 0 -36 45l14 168q-26 82 -64 137q-55 74 -245.5 270t-227.5 238q-76 87 -101.5 149.5t-27.5 130.5q-59 -198 -99 -491.5t-40 -450.5q0 -14 1 -47.5t1 -50.5q0 -43 -6 -61.5t-23 -18.5 q-21 0 -39 24.5t-18 53.5z" />
<glyph unicode="O" horiz-adv-x="1630" d="M127 508q0 167 68.5 329t203.5 287q-25 -11 -60.5 -29t-56 -28t-24.5 -10q-8 0 -13 5.5t-5 12.5q0 21 81 61t156 68q107 104 242 172t272 68q57 0 100.5 -18.5t43.5 -59.5q0 -42 -48 -109q211 -31 329 -153t118 -344q0 -146 -46.5 -274.5t-126.5 -222.5t-184.5 -162.5 t-223.5 -103t-240 -34.5q-145 0 -259 43t-184.5 118t-106.5 172.5t-36 211.5zM225 537q0 -107 30 -200t89.5 -166.5t158 -116t224.5 -42.5q80 0 163.5 22.5t163 65t149.5 108t123 145.5t83.5 183.5t30.5 217.5q0 181 -104.5 311t-268.5 152q-32 -37 -51 -37q-10 0 -10 8 q0 18 18 33q-29 2 -84 2q-211 0 -422 -58q-150 -112 -221.5 -279t-71.5 -349zM584 1235q118 37 301 37q97 0 168 -8q18 44 18 69q0 49 -78 49q-98 0 -215 -43t-194 -104z" />
<glyph unicode="P" horiz-adv-x="1071" d="M158 29q0 140 50 531t97 616v4q0 5 -3 12.5t-3 13.5q0 36 16 84h-12q-14 0 -41.5 -2t-38.5 -2q-45 3 -45 17q0 34 150 34q6 36 41.5 58t87.5 22q32 0 32 -24q-6 -14 -16.5 -30t-15.5 -34q563 -51 563 -319q0 -66 -32 -133.5t-81.5 -119t-105 -90t-105.5 -55.5 q-122 -43 -293 -43q-105 0 -127 11q-10 -58 -19 -185t-9 -243q0 -19 1 -38.5t3 -33.5t4 -25t3 -16t1 -4q0 -8 -5.5 -12t-6.5 -7q-9 -20 -45 -20q-24 0 -34.5 7t-10.5 26zM289 633q12 -12 129 -12q77 0 106 4q62 6 131 35t131.5 74t103 113t40.5 142q0 35 -4 53 q-19 58 -77.5 104t-135.5 73t-144 42t-127 21h-2q-35 -69 -88 -306.5t-63 -342.5z" />
<glyph unicode="Q" horiz-adv-x="1630" d="M127 508q0 167 68.5 329t203.5 287q-25 -11 -60.5 -29t-56 -28t-24.5 -10q-8 0 -13 5.5t-5 12.5q0 21 81 61t156 68q107 104 242 172t272 68q57 0 100.5 -18.5t43.5 -59.5q0 -42 -48 -109q211 -31 329 -153t118 -344q0 -148 -47.5 -277.5t-130 -224.5t-188 -161.5 t-226.5 -100.5q116 -185 183 -264q142 -170 268 -170q48 0 82 31t47 68t23.5 68t17.5 31q10 0 10 -32q0 -75 -38 -128t-88.5 -74.5t-103.5 -21.5q-46 0 -88 14t-80 44t-68.5 61t-65 81t-58 87t-59 95t-56.5 91q-89 -14 -155 -14q-145 0 -259 43t-184.5 118t-106.5 172.5 t-36 211.5zM225 537q0 -107 30 -200t89.5 -166.5t158 -116t224.5 -42.5q59 0 113 11q-164 231 -281 231q-24 0 -43.5 -18t-34.5 -36t-28 -18q-4 0 -4 4q0 42 55 83.5t106 41.5q41 0 82 -22.5t83 -68.5t69.5 -82.5t68.5 -96.5q103 32 195.5 93.5t168 150t119.5 210t44 259.5 q0 181 -104.5 311t-268.5 152q-32 -37 -51 -37q-10 0 -10 8q0 18 18 33q-29 2 -84 2q-211 0 -422 -58q-150 -112 -221.5 -279t-71.5 -349zM584 1235q118 37 301 37q97 0 168 -8q18 44 18 69q0 49 -78 49q-98 0 -215 -43t-194 -104z" />
<glyph unicode="R" horiz-adv-x="1196" d="M156 641q0 8 12 8q12 -12 47 -12q32 258 94 534v5q0 5 -3 12.5t-3 13.5q0 36 16 84h-12q-14 0 -41.5 -2t-38.5 -2q-45 3 -45 16q0 35 150 35q8 39 40 61.5t85 22.5q32 0 32 -24q-26 -61 -28 -68q565 -51 565 -324q0 -114 -95 -221.5t-202 -148.5q-153 -60 -338 -60h-22 q-35 0 -35 -10q0 -11 20 -31q29 -28 99.5 -99.5t115.5 -115.5t114 -106t118.5 -99t105 -66t97.5 -32q37 0 60 33.5t30.5 78t7.5 101.5q0 20 -3 50.5t-3 41.5q0 33 18 33q41 0 41 -120v-5q0 -72 -18.5 -128t-47.5 -87t-61 -47t-63 -16q-44 0 -108.5 35t-123.5 81t-142 125 t-135 132.5t-132 138.5l-58 51q-18 -162 -18 -358q0 -19 1 -38.5t3 -33.5t4 -25t3 -16t1 -4q0 -8 -5.5 -12t-6.5 -7q-9 -20 -45 -20q-24 0 -34.5 7t-10.5 26q0 163 49 540q-51 55 -51 72zM289 633q12 -12 129 -12q77 0 106 4q49 5 104 23.5t109.5 51t98.5 73.5t71 96.5 t27 115.5q0 35 -4 53q-19 58 -77.5 104t-135.5 73t-144 42t-127 21h-2q-36 -70 -90.5 -306.5t-64.5 -338.5z" />
<glyph unicode="S" horiz-adv-x="1077" d="M80 111v14q0 26 12 49t43 23q10 0 14 -11t9 -32.5t14 -36.5q30 -51 79 -68.5t134 -17.5q95 0 194.5 37.5t172.5 111.5t73 164q0 47 -27.5 85.5t-72.5 63.5t-102.5 51t-118 47t-118 51.5t-102.5 64.5t-72.5 86.5t-27.5 117.5q0 114 87 217.5t229 165.5t297 62 q204 0 204 -203q0 -25 -16.5 -61.5t-40.5 -36.5q-9 0 -11.5 5.5t-2.5 20.5v41q0 87 -52 122.5t-145 35.5q-60 0 -136.5 -20.5t-151.5 -57.5t-126 -99t-51 -134q0 -3 1 -9.5t1 -9.5q9 -70 50.5 -124.5t100.5 -88.5t129 -61.5t137.5 -52t123.5 -52t90.5 -68.5t34.5 -95 q0 -79 -52 -159.5t-137.5 -143t-202.5 -101.5t-239 -39q-69 0 -116 12.5t-69.5 35.5t-31 46t-8.5 52z" />
<glyph unicode="T" horiz-adv-x="1257" d="M57 1280q0 15 18 32t38 17h522q30 19 74 19q30 0 32 -17q379 0 469 4q13 0 13 -12q0 -15 -21 -33.5t-57 -23.5h-430q-79 -217 -128.5 -600.5t-49.5 -569.5q2 -20 8 -33.5t6 -19.5q0 -28 -19.5 -43.5t-44.5 -15.5q-22 0 -35.5 12t-13.5 33q9 94 23 271.5t23.5 282 t28.5 252t44 273.5v61q0 40 21 97h-500q-21 0 -21 14z" />
<glyph unicode="U" horiz-adv-x="1323" d="M115 395q0 170 37 369t92 356q-13 3 -13 23q0 36 35 104.5t56 85.5q39 31 84 31q24 0 39.5 -10.5t15.5 -24.5q0 -10 -8 -18q-51 -46 -100 -176t-77 -257t-38 -223q-23 -203 -23 -286q0 -289 143 -289q149 0 416 358q125 170 203 358t78 324v45q0 76 37 128.5t116 52.5 q31 0 31 -21v-4q-64 -147 -114.5 -400t-72.5 -457.5t-22 -316.5q17 -23 17 -59q0 -104 -68 -104q-22 0 -35.5 12t-13.5 33q38 443 67 678q-81 -158 -168.5 -284.5t-161.5 -204t-145 -129t-122.5 -71.5t-90.5 -20q-100 0 -147 108.5t-47 288.5z" />
<glyph unicode="V" horiz-adv-x="1153" d="M139 586q0 280 58 524q-15 3 -15 31q0 106 53.5 167.5t102.5 61.5q23 0 37 -9.5t14 -23.5q0 -9 -6 -18q-56 -68 -97.5 -324.5t-41.5 -398.5q0 -119 8 -208t27.5 -161t54.5 -109.5t86 -37.5q164 0 401 418q105 188 188 441t83 376q0 26 -5.5 54t-5.5 32q0 6 4 12.5 t18 12.5t36 6q43 0 43 -72q0 -111 -107.5 -415t-204.5 -484q-78 -131 -153 -226t-137 -145.5t-111.5 -73t-91.5 -22.5q-63 0 -110 48t-74.5 132.5t-40.5 187.5t-13 224z" />
<glyph unicode="W" horiz-adv-x="1878" d="M115 395q0 170 37 369t92 356q-13 3 -13 23q0 36 35 104.5t56 85.5q39 31 84 31q24 0 39.5 -10.5t15.5 -24.5q0 -10 -8 -18q-51 -46 -100 -176t-77 -257t-38 -223q-23 -203 -23 -286q0 -289 143 -289q28 0 70 24.5t100 83.5t117.5 142.5t124.5 216.5t119 291 q23 169 57 280q-18 5 -18 29q0 63 46.5 101t86.5 38q25 0 42 -11.5t17 -25.5q0 -8 -8 -16q-63 -63 -107 -270t-44 -424q0 -95 9.5 -176t29 -145.5t53 -101t77.5 -36.5q149 0 347 405q95 193 155 411t60 359q0 22 -2 47.5t-2 30.5q0 37 41 37q61 0 61 -121q0 -128 -79.5 -365 t-164.5 -409q-114 -235 -241 -355t-218 -120q-60 0 -104.5 40t-70.5 112t-38 161t-12 197q0 74 6 147q-55 -148 -122.5 -267.5t-129 -190t-123 -118t-106.5 -65.5t-78 -18q-100 0 -147 108.5t-47 288.5z" />
<glyph unicode="X" horiz-adv-x="1370" d="M0 -6q0 10 6 22q47 112 206 285.5t331 329.5q-64 149 -219 575q-15 40 -15 74q0 59 101 59q24 0 57 -12t33 -22q0 -5 -9 -10t-17 -7l-9 -2q-27 -6 -27 -57q0 -82 57.5 -240t118.5 -293q11 10 83 73.5t105 94t101 94t105 105t80.5 93t63 91t19.5 68.5v24q0 21 13 21 q37 0 37 -72q0 -34 -19 -75.5t-58.5 -91t-78.5 -93t-102.5 -103t-106 -98t-113 -101t-100.5 -89.5q48 -107 97.5 -202t105 -184t109 -141.5t94.5 -52.5q50 0 98.5 59t78.5 129.5t54 129.5t29 59q14 0 14 -31q0 -14 -2 -20q-27 -111 -71.5 -193t-94 -124t-94 -61t-84.5 -19 q-42 0 -90 42.5t-99 122t-97 168t-99 205.5l-23 45q-135 -125 -308.5 -313.5t-201.5 -253.5q-14 -35 -36 -35q-9 0 -16 8t-7 19z" />
<glyph unicode="Y" horiz-adv-x="991" d="M61 1276q0 63 93 63q25 0 55.5 -8t30.5 -20q0 -4 -2.5 -8.5t-6 -8t-7 -6.5t-5.5 -4l-2 -2q-27 -6 -27 -57q0 -136 189 -592q26 22 75 66.5t126 122t144.5 154t123.5 161t70 143.5q10 43 26 64.5t49 21.5q47 0 47 -41q0 -19 -17 -51.5t-59 -88t-62 -81t-77 -94.5 q-22 -27 -44.5 -52.5t-48.5 -53.5t-43.5 -47t-48.5 -50l-44 -44t-49.5 -47.5t-45.5 -42.5t-50.5 -47t-47.5 -44q-20 -58 -41 -170t-26 -181q-4 -49 -7.5 -77t-14 -61.5t-27 -51t-45.5 -29.5t-70 -12q-35 0 -35 20q0 7 8 25t16.5 34t20 37t13.5 25q102 219 102 394 q0 22 -2 30q-95 247 -219 631q-15 44 -15 80z" />
<glyph unicode="Z" horiz-adv-x="1138" d="M49 70q0 23 6 53q11 50 116.5 173.5t247 267.5t281.5 285t237 250.5t97 139.5q0 8 -36.5 15.5t-102 12.5t-141.5 5q-134 0 -265 -15t-163 -43q5 -3 11.5 -15.5t6.5 -22.5q-3 -17 -14 -17q-14 0 -49 35t-35 59q0 29 50.5 48t150 25t165 7.5t176.5 1.5h8.5h8h8.5 q205 0 289 -8q24 -6 39.5 -31.5t15.5 -54.5q0 -22 -10 -39q-39 -60 -156 -184t-255.5 -261t-275 -274.5t-236 -253.5t-115.5 -170q3 1 98 21t188.5 38t225.5 34t231 16q40 0 69 -1t63.5 -6t56 -13.5t36.5 -25t15 -38.5q0 -49 -37 -106.5t-60 -57.5q-5 0 -7.5 5t-2.5 11v5 q37 42 37 77q0 36 -42 54t-108 18q-74 0 -162.5 -7.5t-148 -15t-172 -24t-162.5 -23.5q-32 -4 -67.5 -12t-58 -13t-29.5 -5q-2 0 -7 6t-10.5 26t-5.5 48z" />
<glyph unicode="[" horiz-adv-x="1198" d="M41 37q0 108 134.5 386.5t294.5 540t253 369.5q61 68 133 68h260q21 0 21 -15q0 -11 -9 -26q-6 -12 -16 -14.5t-47 -2.5h-168q-64 0 -152 -118t-264 -422q-150 -261 -238.5 -444t-88.5 -273q0 -35 47 -49t141 -14q24 0 94 3t94 3q11 0 11 -11q0 -13 -13.5 -29t-27.5 -16 h-297q-162 0 -162 64z" />
<glyph unicode="\" horiz-adv-x="1236" d="M92 1389q0 18 11.5 29.5t33.5 11.5q23 0 179.5 -190t341 -435.5t351 -497.5t203.5 -360q21 -61 21 -97q0 -40 -33 -40q-13 0 -17.5 4t-4 12t-3 29.5t-12.5 46.5q-63 173 -422 653t-635 797q-14 14 -14 37z" />
<glyph unicode="]" horiz-adv-x="1138" d="M47 -20q0 13 8 26q6 12 16 14.5t48 2.5h168q64 0 151.5 117.5t263.5 422.5q152 263 240 445t88 272q0 35 -47 49t-141 14q-24 0 -94 -3t-95 -3q-10 0 -10 11q0 13 13.5 29t27.5 16h297q162 0 162 -64q0 -108 -134.5 -386.5t-294.5 -540t-253 -369.5q-61 -68 -133 -68 h-260q-21 0 -21 15z" />
<glyph unicode="^" horiz-adv-x="684" d="M102 934q0 4 7 14q12 18 112 105.5t121 91.5q15 -4 105.5 -83t119.5 -108q8 -8 8 -16t-8 -8q-6 0 -8 2q-35 20 -115.5 71.5t-111.5 75.5q-30 -25 -124 -88t-99 -63q-7 0 -7 6z" />
<glyph unicode="_" horiz-adv-x="671" d="M-4 2l6 6h692l4 -6v-33l-4 -4h-692l-6 4v33z" />
<glyph unicode="`" horiz-adv-x="727" d="M223 1288q0 20 12.5 37.5t30.5 17.5q9 0 21 -6q114 -75 206.5 -149t92.5 -92q0 -6 -6 -6q-7 0 -11 2q-320 160 -329 165q-17 9 -17 31z" />
<glyph unicode="a" d="M12 68q0 69 35 184.5t84.5 224t110.5 187.5t108 79h6l23 17q17 20 57 20q32 0 86 -16t62 -16q7 0 21 16t32 16q51 0 51 -45q0 -17 -7.5 -40.5t-20 -52t-15.5 -36.5q-2 -5 -19.5 -13t-19.5 -13q-45 -125 -79.5 -270.5t-34.5 -178.5q0 -51 28 -51q29 0 71 35t72.5 69.5 t32.5 34.5q4 0 4 -8q0 -10 -6.5 -25.5t-13.5 -21.5q-2 -1 -19 -17t-26 -24t-29.5 -25.5t-34.5 -28t-34.5 -24.5t-36 -22t-32.5 -13.5t-30 -5.5q-43 0 -51 51q0 90 68 318q-273 -379 -394 -379q-27 0 -38 17.5t-11 56.5zM106 125q0 -35 21 -35q43 0 154 126t143 177 q50 81 93.5 176t43.5 127q0 13 -10 13h-6q-13 0 -43 4t-49 4q-29 0 -62 -8q-30 -8 -99 -118.5t-127.5 -250.5t-58.5 -215z" />
<glyph unicode="b" horiz-adv-x="598" d="M-4 80q0 33 49 156q6 16 19.5 24t15.5 14q222 578 350 1018l16 12q16 12 37 24.5t35 12.5q21 0 21 -30q-23 -83 -143.5 -410t-198.5 -518q43 64 111 150t155 170.5t131 84.5q41 0 41 -75v-15q-2 -34 -39 -184q47 23 61 23q7 0 7 -5q0 -9 -26 -30t-52 -31 q-40 -132 -73.5 -213t-82.5 -135q-29 -32 -116.5 -85.5t-108.5 -53.5q-83 0 -125 39l-8 -19q-3 -6 -13 -6q-20 0 -41.5 24.5t-21.5 57.5zM119 104q49 -55 100 -55q45 0 90.5 41.5t79.5 104.5t57 120.5t37 106.5q-82 -43 -119.5 -63.5t-97 -61t-94.5 -78.5q-13 -25 -30.5 -65 t-22.5 -50zM186 270q121 101 314 197q32 86 37 178q0 43 -21 43q-33 0 -120 -111t-210 -307z" />
<glyph unicode="c" horiz-adv-x="473" d="M8 129q0 93 45 223t104.5 228.5t102.5 117.5q31 11 66 30.5t61 29.5t57 10q97 0 97 -96q0 -21 -2 -33q-6 -34 -24.5 -56t-35.5 -22q-24 0 -24 37q0 14 8 46t8 46q0 33 -35 33q-25 0 -76.5 -33.5t-78.5 -60.5q-23 -24 -67 -116t-82 -208t-38 -184q0 -40 14 -58t46 -18 q48 0 97.5 24t86.5 59t67 69.5t49.5 59.5t22.5 26q10 -3 10 -15q0 -22 -31 -68t-78 -94.5t-114.5 -85t-130.5 -36.5q-57 0 -91 36t-34 109z" />
<glyph unicode="d" horiz-adv-x="694" d="M10 47q0 87 61.5 254t146.5 303.5t142 136.5h9q14 0 33.5 15.5t41.5 15.5q31 0 88 -16.5t60 -16.5q2 0 2 2q12 33 51.5 136.5t65.5 174t34 99.5q-22 0 -22 25q0 29 23.5 78.5t37.5 70.5q8 16 33 16q27 0 55 -14q7 -3 7 -18q0 -33 -32 -122t-88 -231.5t-87 -232.5q2 2 4 2 q8 0 17 -14.5t9 -26.5t-20 -12q-26 0 -29 6q-40 -92 -103 -298.5t-63 -254.5q0 -47 27 -47q31 0 72 36t72.5 72.5t37.5 36.5t6 -10q0 -6 -3 -16.5t-6.5 -17.5t-4.5 -7q-47 -47 -130.5 -107.5t-131.5 -60.5q-17 0 -28 10.5t-11 32.5q0 55 26 159t52 179q-33 -47 -79 -104.5 t-109 -129t-124 -118.5t-100 -47q-22 0 -32.5 14t-10.5 47zM106 121q0 -33 21 -33q20 0 59.5 33t72 69.5t71 81t41.5 47.5q56 62 102 144.5t75.5 155t31.5 75.5q0 10 -39.5 16.5t-81.5 6.5q-35 0 -51 -4q-27 -7 -100 -120.5t-137.5 -256.5t-64.5 -215z" />
<glyph unicode="e" horiz-adv-x="518" d="M41 117q0 23 6 53q15 77 38.5 151t25.5 91q-10 2 -20.5 10.5t-10.5 21.5q0 23 35 23h14q7 15 21.5 44.5t32 64.5t40.5 77q33 62 86.5 85.5t132.5 23.5q33 0 59 -33t38 -92q12 -65 12 -102q0 -45 -31 -76.5t-79.5 -45.5t-87.5 -19t-74 -5q-21 0 -46.5 1t-27.5 1 q-68 -172 -68 -270q0 -82 62 -82q33 0 76 34t76.5 74.5t62.5 74.5t37 34q14 0 14 -16q0 -37 -54.5 -100t-124.5 -111.5t-110 -48.5q-22 0 -43 6t-43 20.5t-35.5 43t-13.5 67.5zM223 449q4 0 32.5 -2.5t49.5 -2.5q83 0 120 19t40 76q0 52 -10.5 88.5t-24 50.5t-27.5 14 q-29 0 -69.5 -51t-68 -102.5t-42.5 -89.5z" />
<glyph unicode="f" horiz-adv-x="430" d="M-369 -260q0 56 17.5 106t32.5 50q7 0 10 -13q-4 -40 -4 -57q0 -94 36.5 -151.5t90.5 -57.5q50 0 101 52.5t93 158.5q57 144 156 463t123 414q-54 -9 -137 -9q-48 0 -48 19q0 14 27 33.5t43 19.5h131q22 80 65.5 224t63.5 186q19 41 40.5 72t47 49.5t47.5 30t54.5 16.5 t53.5 6.5t58.5 3t57.5 2.5q32 -5 32 -47q0 -28 -13.5 -56t-27.5 -28q-1 0 -11.5 21t-34.5 42t-58 21q-42 0 -81 -28t-62 -87q-92 -239 -140 -428h201q57 0 57 -12q0 -21 -94 -32t-180 -11q-7 -20 -49 -164t-94.5 -321t-79.5 -261q-29 -90 -66 -160.5t-74 -113t-78.5 -70 t-77 -37.5t-71.5 -10q-51 0 -85 15t-48.5 42.5t-19.5 51.5t-5 55z" />
<glyph unicode="g" horiz-adv-x="600" d="M-150 -608q0 75 54 202.5t115.5 228.5t99.5 144q6 9 41 21q-11 7 -35 18.5t-35.5 20.5t-11.5 20q0 22 18.5 42t40.5 20h8q81 -30 162.5 -115t133 -192.5t51.5 -198.5q0 -23 -3 -41q-12 -69 -96 -135.5t-193 -105t-200 -38.5q-150 0 -150 109zM-92 -582q0 -84 96 -84 q66 0 157.5 32.5t160 80.5t71.5 88v27q0 110 -58 217t-140 180q-6 -8 -50.5 -72t-77 -114.5t-73.5 -120.5t-63.5 -130.5t-22.5 -103.5zM113 270q0 113 50 231t130.5 195.5t159.5 77.5q10 0 30 -4q0 74 54 74q34 0 46.5 -23.5t12.5 -70.5q0 -15 -2 -49.5t-2 -51.5l10 -7 q9 -6 15 -10.5t12 -13t6 -16.5q0 -6 -2 -10q-6 -8 -29 -8h-18q-3 -12 -9.5 -50t-13 -69.5t-10.5 -42.5q-52 -131 -143.5 -210t-188.5 -79q-58 0 -83 33t-25 104zM199 256q0 -63 51 -63q34 0 78 31t85 82.5t69 128t28 157.5q-20 4 -24 35.5t-7.5 60.5t-23.5 29 q-34 0 -68.5 -28t-61.5 -70.5t-45 -78.5t-30 -67q-51 -135 -51 -217z" />
<glyph unicode="h" horiz-adv-x="634" d="M16 8q0 16 11 41q55 143 106 297t109 342t96 301q6 18 6 37q0 8 -2 15t-2 12q0 8 6 26q46 132 79 173.5t101 41.5q28 0 31 -18q-220 -444 -362 -959q305 478 460 478q43 0 43 -29q0 -19 -14 -41q-110 -179 -205.5 -396.5t-95.5 -338.5q0 -29 16 -29q6 0 36 18.5t36 18.5 q10 0 10 -12q0 -25 -38 -52.5t-76 -27.5q-52 0 -52 76q0 69 36 185t79 216.5t79 187t36 101.5q0 4 -2 4q-10 0 -37 -31q-106 -119 -184.5 -234.5t-113.5 -187t-62.5 -128.5t-51 -82t-59.5 -25q-19 0 -19 20z" />
<glyph unicode="i" horiz-adv-x="344" d="M37 25q0 19 8 43q22 64 45.5 131t36.5 104t26 75.5t19.5 58t12 39t7 30t1.5 20.5q0 8 -3.5 15t-3.5 12q0 6 7 27q44 128 79.5 171.5t102.5 43.5q28 0 31 -19q-3 -7 -27 -51.5t-41 -77t-45.5 -96t-50.5 -121.5t-47 -137.5t-43 -159.5q-2 -6 -2 -16q0 -25 20 -25 q12 0 66.5 31t70.5 31q14 0 17 -9q0 -25 -104 -91t-144 -66q-39 0 -39 37zM336 987q0 43 64 94.5t110 51.5q8 0 12 -7q0 -26 -39 -67.5t-49 -63.5q-8 -20 -12.5 -31t-17 -25.5t-27.5 -18.5q-18 0 -27.5 11t-11.5 23t-2 33z" />
<glyph unicode="j" horiz-adv-x="411" d="M-334 -354q0 50 13 90.5t26 40.5q7 0 10 -13v-20q0 -111 41.5 -180.5t100.5 -69.5q47 0 92.5 51.5t77.5 155.5q119 382 223 788q4 16 4 35q0 8 -3 17t-3 14q0 15 4 25q33 127 65.5 171t98.5 44q27 0 33 -19q-146 -346 -277 -928q-26 -112 -66 -192.5t-86.5 -121.5 t-90 -59t-89.5 -18q-45 0 -78.5 12.5t-51.5 31t-28.5 46t-13 49.5t-2.5 50zM352 1010q0 42 68 87.5t106 45.5q12 0 20.5 -5.5t8.5 -13.5q0 -20 -37 -39q-24 -14 -42.5 -42t-27.5 -53t-23 -44.5t-32 -19.5q-13 0 -26 32t-15 52z" />
<glyph unicode="k" horiz-adv-x="550" d="M-2 -25q0 9 10 39q57 144 110.5 302.5t119 365.5t98.5 307q8 24 8 37q0 8 -3 15t-3 12q0 8 6 26q46 131 79.5 173t100.5 42q28 0 31 -18q-122 -247 -199 -444t-137 -435q1 0 95 83.5t196 173.5t117 102q55 41 84 41q12 0 12 -9q0 -21 -55 -65q-128 -75 -241.5 -198 t-113.5 -163q0 -74 63.5 -184t112.5 -151q39 -33 39 -54q0 -12 -18 -12q-33 0 -73 34t-78 88t-68 104t-57 99t-31 56q-21 -58 -56 -170t-36 -137q0 -14 -38.5 -46t-60.5 -32q-14 0 -14 18z" />
<glyph unicode="l" horiz-adv-x="366" d="M35 25q0 22 8 43q53 146 98 286t107 346.5t88 288.5q6 18 6 37q0 7 -3 15t-3 14t6 24q41 128 75.5 171.5t102.5 43.5q28 0 31 -18q-111 -233 -228 -564t-173 -579q-3 -9 -3 -16q0 -25 21 -25q13 0 66.5 31t68.5 31q13 0 19 -9q0 -25 -103 -91t-145 -66q-39 0 -39 37z" />
<glyph unicode="m" horiz-adv-x="999" d="M-4 -18q0 14 9 36.5t21 45t13 26.5q42 101 135 399q8 24 8 37q0 8 -3 15t-3 12q0 9 6 27q44 128 79 171.5t101 43.5q28 0 31 -19q-166 -341 -200 -491q36 58 71.5 111t99 138t118.5 145t118 105t111 45q41 0 41 -26q0 -17 -15 -41q-92 -155 -145 -278t-80 -253 q101 199 191.5 309t271.5 240q15 11 45.5 21t56.5 10q41 0 41 -29q0 -15 -12 -39q-248 -440 -299 -706q-6 -21 -6 -41q0 -29 18 -29q9 0 43 19.5t39 19.5q10 0 10 -12q0 -26 -44.5 -55t-90.5 -29q-59 0 -59 86q-1 46 19 115q20 72 41.5 123.5t59 135t44.5 101.5 q63 148 63 178q0 15 -10 15q-5 0 -23 -11q-47 -31 -99.5 -83.5t-110 -127.5t-109.5 -178t-82 -215q-4 -17 -43.5 -38t-65.5 -21q-24 0 -24 18q0 1 1 4t1 4q26 123 83.5 308.5t108.5 320.5q11 29 11 37q0 10 -7 10q-11 0 -30 -22q-108 -125 -195 -248.5t-131 -200.5t-80 -139 t-64 -89.5t-63 -27.5q-16 0 -16 17z" />
<glyph unicode="n" horiz-adv-x="667" d="M-6 -20q4 -5 76 202t104 307q8 24 8 37q0 8 -3 15t-3 12q0 9 6 27q46 132 79 173.5t101 41.5q28 0 31 -19q-166 -341 -200 -491q36 58 70.5 110.5t98 137.5t118 145t118.5 105.5t113 45.5q41 0 41 -26q0 -17 -15 -41q-105 -174 -194.5 -399t-89.5 -338q0 -37 16 -37 q6 0 40 20.5t40 20.5q12 0 12 -13q0 -26 -45.5 -56t-89.5 -30q-30 0 -44.5 20t-14.5 68q0 80 32.5 187.5t101 271t70.5 168.5q11 29 11 41q0 10 -7 10q-11 0 -45 -37q-87 -99 -251 -336t-168 -292q-2 -14 -39.5 -40t-61.5 -26q-13 0 -16 15z" />
<glyph unicode="o" horiz-adv-x="534" d="M43 133q0 47 8 94q9 53 36.5 137.5t70.5 182t105.5 166.5t125.5 69h14q0 28 17 49t45 21q20 -2 32.5 -39t18 -81t22 -81.5t44.5 -40.5q39 -6 39 -22q0 -18 -39 -37q-22 -10 -47 -10q0 -99 -25 -192t-65 -161.5t-89 -121t-99.5 -79t-94.5 -26.5q-55 0 -87 43t-32 129z M135 123q0 -100 58 -100q36 0 84.5 43.5t93 114t75.5 172t31 204.5q-19 10 -46 72.5t-36 62.5q-34 0 -77 -60.5t-78.5 -143t-62.5 -160.5t-34 -119q-8 -47 -8 -86z" />
<glyph unicode="p" horiz-adv-x="610" d="M-139 -514q0 42 33.5 148.5t98 279t66.5 178.5q-6 15 -6 35q0 49 45 76q145 449 160 506q0 2 -22.5 5.5t-22.5 12.5q0 16 31 29l32 14q-8 8 -8 16q0 28 39.5 62.5t65.5 34.5q16 0 16 -21q0 -19 -10 -39l-23 -49q145 -102 193 -334q12 4 50.5 17t59.5 18q8 2 23 2 q14 0 14 -6q0 -15 -20.5 -26t-61.5 -23t-57 -19q10 -54 10 -116q0 -83 -24.5 -144.5t-65.5 -95t-86.5 -49.5t-95.5 -16q-120 0 -184 53q-24 -70 -73.5 -212t-70.5 -204q-2 -4 -2 -8q0 -6 7.5 -18t7.5 -25q0 -25 -31.5 -79t-63.5 -54q-24 0 -24 51zM135 80q71 -47 139 -47 q55 0 96 20t64 54t34 74.5t11 86.5q0 45 -10 107q-35 0 -141.5 -64.5t-147.5 -101.5zM203 281q98 67 256 127q-22 110 -60 188t-61 78q-6 0 -26 -58t-55 -169t-54 -166z" />
<glyph unicode="q" horiz-adv-x="636" d="M20 47q0 90 70.5 257t167 303t160.5 136h6l22 17q18 20 58 20q32 0 85.5 -16t59.5 -16q7 0 23.5 16t34.5 16q55 0 55 -51q0 -37 -39 -123q-2 -5 -19.5 -13t-19.5 -13q-81 -192 -121.5 -293t-95.5 -263t-88 -305q-8 -33 -8 -57q0 -37 22 -37q30 0 74 36.5t80 73t45 36.5 q10 0 10 -15q0 -11 -6.5 -26t-11.5 -17q-200 -172 -279 -172q-41 0 -47 51q0 130 229 735q9 24 13 35q-42 -53 -90 -107.5t-113 -121t-126.5 -108t-102.5 -41.5q-26 0 -37 15t-11 48zM133 119q0 -29 19 -29q23 0 73 41.5t104 101t88.5 99.5t51.5 61q59 91 107.5 183.5 t48.5 121.5q0 11 -9 11h-6q-14 0 -43 5t-49 5q-30 0 -61 -10q-26 -5 -104.5 -118.5t-149 -257t-70.5 -214.5z" />
<glyph unicode="r" horiz-adv-x="552" d="M12 -2q0 55 13.5 101t33.5 53q33 125 50 194t23 98.5t11 47.5q4 14 4 32q0 10 -4 19t-4 16q0 13 4 23q33 129 66.5 176t99.5 47q26 0 29 -17q-3 -7 -22 -52t-37.5 -90t-41.5 -106t-43.5 -127.5t-33.5 -125.5q18 35 52 92t85 130.5t102.5 136t107 106t95.5 43.5 q24 0 36.5 -17t12.5 -45q0 -64 -47 -129q-15 -22 -43 -43.5t-43 -21.5q-12 0 -12 12q0 8 19.5 57.5t19.5 67.5q0 14 -10 14q-46 0 -130 -104.5t-165.5 -258.5t-124.5 -290q-12 -18 -39 -33.5t-45 -15.5q-12 0 -19 10z" />
<glyph unicode="s" horiz-adv-x="520" d="M29 6q0 25 22 25q37 0 108 16.5t137 49t66 67.5q0 25 -30 53.5t-73 57t-86 58t-73 66t-30 72.5q0 35 24 66q20 25 42 48t46 42t45.5 35t48 30t44.5 24t44 20.5t37.5 15.5t34 13t25.5 9q35 10 53 10q74 0 74 -82q-3 -41 -52.5 -116.5t-76.5 -75.5q-8 0 -8 12 q0 19 22.5 75.5t22.5 72.5q0 30 -37 30q-5 0 -68 -10q-17 -4 -49.5 -18.5t-71.5 -38t-67.5 -57.5t-28.5 -68q0 -24 10 -41q18 -36 52 -63.5t68 -45t65.5 -35t51 -43t19.5 -59.5q0 -46 -42 -94.5t-101.5 -83t-123 -56.5t-107.5 -22q-16 0 -26.5 13t-10.5 28z" />
<glyph unicode="t" horiz-adv-x="473" d="M109 715q0 14 26.5 33.5t42.5 19.5h131l8 29q7 28 7 34q0 9 -4.5 16.5t-4.5 12.5q0 4 7 25q41 130 74.5 173.5t99.5 43.5q29 0 32 -19q-54 -118 -125 -315h199q57 0 57 -12q0 -21 -94 -32t-180 -11q-104 -295 -166 -553q-10 -42 -10 -60q0 -34 22 -34q24 0 58.5 22.5 t62 50t52 50t32.5 22.5q10 0 10 -12t-6.5 -26.5t-15.5 -18.5q-187 -170 -264 -170q-47 0 -47 59q0 19 6 47t12 49t17 53.5t14 43.5q26 84 51 172t48 176.5t32 120.5q-54 -9 -137 -9q-47 0 -47 19z" />
<glyph unicode="u" horiz-adv-x="681" d="M14 18q0 27 23 88q6 15 37 82.5t55 123t45 117t21 89.5q0 10 -4.5 19t-4.5 16q0 2 4 22q35 131 66 173.5t102 42.5q29 0 35 -19q-1 -2 -35 -84t-64.5 -156.5t-66.5 -165.5t-58 -152.5t-22 -74.5q0 -8 7 -8q8 0 49 33q205 158 360 442q1 36 14 78.5t48.5 81.5t85.5 39 q21 0 24 -19q-6 -20 -45 -124.5t-63 -174.5q-36 -104 -78.5 -254t-42.5 -182q0 -6 4 -6q17 1 83 51.5t91 50.5q16 0 16 -10q0 -15 -45.5 -47.5t-105 -67.5t-66.5 -40q-15 -12 -42.5 -42t-50.5 -49.5t-42 -19.5q-10 0 -18 7t-8 16q0 14 32.5 44t42.5 52q12 29 63.5 211 t76.5 278q-36 -53 -94.5 -128t-134 -162t-149 -147t-116.5 -60q-29 0 -29 36z" />
<glyph unicode="v" horiz-adv-x="714" d="M104 -12q0 14 3.5 19.5t9.5 9t13.5 11.5t15.5 34t15 68t13 122.5t8 189.5q0 38 -12 56t-12 71q0 100 19.5 139.5t80.5 39.5q30 0 40 -19q-6 -48 -26.5 -197t-32.5 -250.5t-20 -197.5q2 2 41 34.5t77.5 71.5t87.5 98t93.5 141.5t73.5 174.5q4 16 4 25q0 14 -8 35t-8 32 q0 26 42.5 77.5t71.5 51.5q23 0 23 -43q0 -22 -6 -57q-22 -120 -102.5 -259t-174 -243.5t-183 -175t-134.5 -70.5q-13 0 -13 11z" />
<glyph unicode="w" horiz-adv-x="1009" d="M35 653q0 28 53 75.5t82 47.5q84 0 84 -289q0 -60 -6 -165q21 39 59.5 103.5t90.5 145.5t100 138t71 57q17 22 41 22q17 0 28 -12.5t11 -32.5q0 -5 -2 -15q-2 -11 -2 -17q0 -13 19 -68q16 -49 41 -155t43 -184.5t20 -78.5q17 0 71 89t104.5 209.5t55.5 191.5q0 12 -8 37 t-8 39q0 23 21 47h2q21 18 34 18q27 0 40.5 -40t13.5 -77q0 -12 -37 -94t-102.5 -206.5t-129.5 -227.5q-20 -31 -31 -50t-19 -38.5t-11.5 -31t-12 -42t-16.5 -57.5q-9 -15 -22 -15q-21 0 -42.5 25t-21.5 49q0 8 1 26t1 27q0 123 -28 270t-84 283q-47 -28 -131.5 -169.5 t-149.5 -293.5t-65 -210q-6 -23 -23 -23q-21 0 -45.5 28t-24.5 52q0 6 2 8q86 211 86 389q0 66 -8 115.5t-21.5 76t-27.5 38.5t-29 12q-3 0 -27.5 -16.5t-33.5 -16.5q-6 0 -6 6z" />
<glyph unicode="x" horiz-adv-x="577" d="M-154 -190q0 48 92.5 167t213 255.5t151.5 183.5q0 1 -3 14.5t-6.5 28t-9.5 36.5t-13.5 41.5t-18 40t-22 35t-26.5 24t-32 9.5q-11 0 -29 -2t-24 -2q-26 0 -29 25q-1 4 13 14t30.5 18.5t22.5 8.5q21 1 40.5 17.5t33 33t20.5 16.5h2q34 0 76 -111.5t53 -173.5 q27 50 142 173.5t141 123.5q22 0 22 -30q0 -20 -8 -41t-19 -29q-18 -6 -20 -6l-6 2q-6 0 -65.5 -60t-75.5 -79q-99 -99 -99 -105l53 -190q54 -189 54 -236q0 -23 -27 -62.5t-53 -39.5q-7 0 -21.5 82.5t-35.5 198t-41 171.5q-47 -62 -137 -169.5t-157.5 -197t-119.5 -181.5 q-23 -41 -43 -41q-7 0 -13 9.5t-6 27.5z" />
<glyph unicode="y" horiz-adv-x="649" d="M-178 -637q0 58 55.5 166t122 204t125 178.5t61.5 92.5q23 70 23 184q0 167 -31.5 294.5t-87.5 127.5q-7 0 -17.5 -1t-11.5 -1q-8 0 -8 10q0 18 45 50q6 4 35 45t43 41q44 0 77.5 -132t33.5 -294q0 -16 -1 -49t-1 -50q0 -32 16 -32q31 0 113 107.5t150.5 228.5t68.5 157 q0 12 -10 12q-4 0 -15 -4t-16 -4q-12 0 -17 11q0 26 59.5 59t96.5 33q10 0 14 -2q7 -11 7 -23q0 -57 -108 -222.5t-207 -293t-152 -188.5q0 10 -3 -2q-2 -5 -5 -23q-30 -135 -52 -135q-8 0 -21.5 5t-15.5 5q-276 -370 -276 -475q0 -19 8 -38.5t8 -25.5q0 -22 -24 -38.5 t-49 -16.5q-18 0 -25.5 9t-7.5 30z" />
<glyph unicode="z" horiz-adv-x="620" d="M-23 43q0 24 11.5 50t27.5 40q361 348 537 561h-111q-83 0 -126.5 -5.5t-59.5 -22.5q-2 -2 -19 -22.5t-32 -38t-19 -17.5q-18 0 -18 14q0 87 46.5 124.5t162.5 37.5q4 0 52 1q32 1 58 1h25q34 0 78.5 -3.5t69 -12.5t24.5 -23q0 -12 -2 -20q-10 -36 -28 -54.5t-32.5 -23 t-15.5 -6.5q-101 -82 -270.5 -254.5t-235.5 -270.5q-4 -4 -4 -12q0 -33 140 -33q82 0 181.5 10t135.5 19q21 6 35 6q20 0 20 -14q0 -26 -25 -60t-53 -34q-12 0 -19 6.5t-7 13.5q-123 10 -197 10q-78 0 -171 -7t-107 -7q-52 0 -52 47z" />
<glyph unicode="{" horiz-adv-x="661" d="M74 547q0 6 11 14t26 12q73 7 116.5 18t82.5 35.5t63.5 67t44.5 111.5q10 34 22 87t20.5 89.5t24.5 83.5t34 79.5t49 66.5t70.5 54t97.5 33t130 13h2q11 0 11 -19q0 -21 -21 -24q-47 0 -85 -7.5t-66.5 -19.5t-51.5 -33.5t-38 -43.5t-29 -56t-23 -63.5t-20 -73.5 q-15 -58 -29.5 -104t-41 -104t-57.5 -99t-78 -75t-103 -46q55 -21 87.5 -65.5t32.5 -106.5q0 -80 -52 -233.5t-52 -233.5q0 -46 21 -72.5t51 -34t60.5 -9t51.5 -3t21 -10.5q0 -8 -14 -16.5t-33 -8.5q-51 0 -88 5t-74 20.5t-56.5 48t-19.5 82.5q0 83 54.5 240.5t54.5 240.5 q0 49 -21.5 80.5t-51.5 43t-60.5 17t-52 9t-21.5 10.5z" />
<glyph unicode="|" horiz-adv-x="448" d="M205 -150q0 7 4 23q14 57 14 354v682q0 114 -4 192.5t-8 114.5t-4 46q0 20 35 20q82 0 82 -176q0 -222 -22 -700t-50 -560q-14 -26 -29 -26q-18 0 -18 30z" />
<glyph unicode="}" horiz-adv-x="870" d="M55 -229q0 18 21 24q47 0 85 7.5t66.5 19.5t51.5 33.5t38 43.5t29 56t23 63.5t20 73.5q15 58 29.5 104t41 104t57.5 99t78 75t103 46q-56 21 -88 65t-32 107q0 80 52 233t52 232q0 46 -21.5 73.5t-52 35t-60.5 9t-51.5 3t-21.5 10.5q0 8 14.5 16.5t34.5 8.5q51 0 87.5 -5 t73 -20.5t56 -48t19.5 -82.5q0 -83 -54.5 -241t-54.5 -240q0 -49 21.5 -80.5t52.5 -43t61.5 -17t52 -9t21.5 -10.5q0 -16 -37 -27q-74 -7 -117.5 -17.5t-83 -35.5t-63.5 -67t-43 -111q-10 -34 -22 -87t-20.5 -89.5t-24.5 -83.5t-34 -79.5t-49 -66.5t-70.5 -54t-97.5 -33 t-130 -13h-2q-11 0 -11 19z" />
<glyph unicode="~" horiz-adv-x="622" d="M59 901q0 13 34.5 43t53.5 41q35 21 74 21q34 0 98 -21.5t97 -21.5q49 0 86 43q12 0 12 -9q0 -39 -57 -70.5t-80 -31.5q-36 0 -102 27.5t-101 27.5q-26 0 -48 -13t-37.5 -26.5t-25.5 -13.5q-4 0 -4 4z" />
<glyph unicode="&#xa1;" horiz-adv-x="413" d="M-293 -489q0 4 4 12q25 30 123 216.5t192.5 396.5t94.5 270q0 13 -7.5 22t-7.5 14q0 16 26 31.5t48 15.5q2 0 5.5 -1t4.5 -1q11 -8 11 -32q0 -56 -47.5 -184t-128 -309.5t-82.5 -186.5q-8 -19 -37.5 -75t-51.5 -101.5t-22 -57.5q0 -6 17 -9.5t20 -14.5q0 -12 -32 -20.5 t-68 -8.5q-62 0 -62 23zM227 711q22 115 30 135q26 42 67 45q32 0 32 -78v-2q0 -34 -48.5 -69t-74.5 -35q-6 0 -6 4z" />
<glyph unicode="&#xa2;" horiz-adv-x="473" d="M127 500q0 72 41.5 168.5t96 169t93.5 90.5q24 7 62.5 25t54.5 22q80 197 110.5 257t51.5 60q1 0 4 -1t4 -1q8 -4 8 -16q0 -8 -6 -23q-30 -62 -121 -272q86 -4 86 -72q0 -35 -18 -57.5t-39 -22.5q-20 0 -20 27q0 9 7 32.5t7 33.5q0 26 -37 26q-113 -261 -199 -497 q44 12 90 42t75.5 58.5t51.5 52t25 23.5q8 0 8 -11q0 -34 -82 -106t-182 -100q-90 -252 -90 -326q0 -13 3 -22.5t7.5 -14t8.5 -7t7 -4.5l3 -1q0 -7 -3 -13t-6.5 -9.5t-9 -6.5t-9 -4.5t-8.5 -2.5t-4 -1h-1q-33 0 -33 72q0 98 84 329h-12q-48 0 -78.5 25.5t-30.5 77.5z M205 496q0 -53 39 -56h18q113 291 195 486q-35 -17 -80 -49q-36 -31 -104 -168.5t-68 -212.5z" />
<glyph unicode="&#xa3;" horiz-adv-x="1673" d="M82 31q0 106 135 106q45 0 93.5 -10.5t138.5 -40.5q39 49 121 219.5t126 308.5q-11 0 -55.5 -1t-71.5 -1q-73 0 -88 6q-16 7 -16 21q0 13 6.5 21t20 11.5t23.5 4t28 0.5q28 0 84.5 -1t81.5 -1q13 29 37.5 107t48 150t67.5 159.5t94.5 151t130 106.5t173.5 43 q89 0 148.5 -56.5t59.5 -140.5q0 -71 -30.5 -110.5t-67.5 -39.5q-29 0 -29 13q0 3 12 14.5t26 26t26 42.5t12 60q0 68 -48.5 110t-135.5 42q-48 0 -91 -21t-77 -54t-65.5 -83t-54.5 -99t-47 -111.5t-40 -111.5t-35.5 -107t-31.5 -91q321 0 321 -37q0 -23 -72 -23 q-59 0 -156 2t-106 2q-1 -4 -32 -80t-42.5 -104t-43 -98t-52.5 -109t-51 -86.5t-57 -77.5q141 -68 363 -112.5t392 -44.5q66 0 127.5 23.5t105.5 74.5t44 119q0 34 -8 63.5t-19.5 47.5t-23 31t-19.5 20.5t-8 9.5q0 6 7.5 12t17.5 6q37 0 70.5 -49.5t33.5 -126.5 q0 -148 -99.5 -227.5t-246.5 -79.5q-47 0 -98 5t-91 10.5t-98 19.5t-88.5 22t-95.5 28.5t-86 27.5t-92 31.5t-84 29.5q-179 62 -258 62q-99 0 -99 -93q0 -10 -18 -10q-17 0 -32 17t-15 51z" />
<glyph unicode="&#xa4;" horiz-adv-x="980" d="M100 184l209 197q-71 46 -71 133q0 70 36.5 127.5t100.5 95.5l-109 166l60 19q9 -36 80 -168q75 34 172 34q70 0 122 -24q90 87 148 154l47 -19q-4 -4 -32.5 -28.5t-65.5 -57t-72 -65.5q59 -43 59 -125q0 -80 -44.5 -142.5t-118.5 -97.5q99 -161 129 -197h-68 q-9 28 -98 181q-62 -21 -131 -21t-119 23l-168 -185h-66zM317 545q0 -60 42 -99.5t118 -39.5q102 0 166 58.5t64 139.5q0 59 -37 96t-111 37q-107 0 -174.5 -54t-67.5 -138z" />
<glyph unicode="&#xa5;" horiz-adv-x="1064" d="M-16 328q0 21 22 36t43 15q19 0 50.5 -7t37.5 -7q15 0 133 -5q-1 -1 3.5 17t10 46t7.5 46q-86 -4 -125 -4q-52 0 -72 2q-3 0 -9.5 -1t-10.5 -1q-26 0 -41 14t-15 29q0 21 22.5 36t43.5 15q19 0 50.5 -7t37.5 -7q39 0 125 -4q0 18 -2 24q-95 247 -219 631q-15 44 -15 80 q0 63 93 63q25 0 55.5 -8t30.5 -20q0 -4 -2.5 -8.5t-6 -8t-7 -6.5t-5.5 -4l-2 -2q-27 -6 -27 -57q0 -136 189 -592q26 22 75 66.5t126 122t144.5 154t123.5 161t70 143.5q10 43 26 64.5t49 21.5q47 0 47 -41q0 -19 -17 -51.5t-59 -88t-62 -81t-77 -94.5q-22 -27 -44.5 -52.5 t-48.5 -53.5t-43.5 -47t-48.5 -50l-44 -44t-49.5 -47.5t-45.5 -42.5t-50.5 -47t-47.5 -44q-11 -33 -14 -45q131 0 254 6q51 0 51 -13q0 -16 -94 -31.5t-225 -23.5q-19 -91 -23 -119q72 0 113 2q0 -1 26 0t62.5 2.5t54.5 1.5q51 0 51 -12q0 -16 -94 -31.5t-223 -23.5 q-6 -32 -11 -79t-8 -73t-13 -57.5t-25 -47.5t-43.5 -27t-69.5 -11q-35 0 -35 20v5q75 134 113 264q-86 -4 -121 -4q-50 0 -70 2q-3 0 -9.5 -1t-10.5 -1q-26 0 -40.5 14t-14.5 29z" />
<glyph unicode="&#xa6;" horiz-adv-x="448" d="M205 -156q0 17 10 102t10 181q0 36 -1 180.5t-1 259.5l86 2q-15 -376 -32.5 -565.5t-53.5 -189.5q-18 0 -18 30zM207 1262q0 20 35 20q82 0 82 -176q0 -173 -11 -447l-90 5v245q0 114 -4 192.5t-8 114.5t-4 46z" />
<glyph unicode="&#xa7;" horiz-adv-x="1282" d="M-29 -352q0 25 12.5 49t43.5 24q10 0 13.5 -11t8 -32.5t14.5 -37.5q29 -51 79.5 -68.5t136.5 -17.5q97 0 198.5 38.5t174.5 113.5t73 165q0 53 -36 95t-93 70.5t-126 54.5t-138.5 56.5t-126.5 67.5t-93 95t-36 132q0 116 90.5 221t234.5 166q-20 44 -20 101 q0 115 88 219.5t231 166.5t299 62q207 0 207 -204q0 -25 -16.5 -62t-40.5 -37q-9 0 -11.5 5.5t-2.5 21.5v43q0 87 -53 122.5t-146 35.5q-60 0 -138 -21.5t-153 -59t-126.5 -100.5t-51.5 -135q0 -3 1 -9t1 -9q8 -63 41.5 -113t82 -82t108 -60.5t120.5 -48t118.5 -44 t102.5 -49.5t72 -63.5t27 -86.5q0 -111 -99.5 -221.5t-246.5 -169.5q41 -44 41 -99q0 -107 -88.5 -210t-237.5 -168.5t-311 -65.5q-70 0 -117.5 12.5t-70 35t-31.5 45.5t-9 52v15zM162 500q0 -3 1 -9.5t1 -9.5q5 -36 19 -68t31.5 -56t46.5 -47t53 -38t62 -32.5t63 -27.5 t67 -26l63 -24q127 -50 187 -94q112 40 193 119t81 171q0 62 -45 107.5t-118 76t-151 59t-158.5 74t-125.5 103.5q-114 -43 -192 -115.5t-78 -162.5z" />
<glyph unicode="&#xa8;" horiz-adv-x="808" d="M215 1083q0 37 34.5 72t69.5 35q8 0 11 -6q0 -22 -12.5 -66t-12.5 -47q0 -13 -10 -22.5t-19 -13t-26 -7.5q-35 0 -35 55zM475 1083q0 36 35.5 71.5t69.5 35.5q9 0 12 -6q0 -22 -12.5 -66t-12.5 -47q0 -13 -10 -22.5t-19 -13t-26 -7.5q-37 0 -37 55z" />
<glyph unicode="&#xa9;" horiz-adv-x="1636" d="M100 504q0 114 36.5 229.5t110 221t174.5 187.5t240 130.5t295 48.5q123 0 223.5 -27t170.5 -73.5t117.5 -111.5t69.5 -139.5t22 -158.5q0 -113 -40 -230.5t-118.5 -224t-184.5 -190t-249.5 -133t-302.5 -49.5q-114 0 -208 27.5t-159 75.5t-110 113.5t-66 142t-21 161.5z M178 469q0 -93 29.5 -172t88.5 -140.5t157 -96.5t227 -35q135 0 258.5 49.5t216 132t161.5 187t104.5 218.5t35.5 222q0 95 -28.5 175t-85.5 143t-152 98.5t-219 35.5q-134 0 -259.5 -50t-220.5 -133.5t-166.5 -189t-109 -221t-37.5 -223.5zM358 535q0 100 42.5 203t118 189 t192 140.5t250.5 54.5q137 0 182 -61q5 12 8.5 32t8 30t14.5 10q6 0 11 -4.5t5 -10.5q0 -15 -4 -31t-11 -35.5t-10 -29.5q13 -33 13 -80q-1 -16 -2 -22.5t-4.5 -20.5t-11 -20.5t-19.5 -6.5q-21 0 -30 7.5t-9 25.5q0 26 24 105q-20 32 -70 50.5t-110 18.5q-111 0 -208 -48.5 t-159.5 -125t-98.5 -168.5t-36 -182q0 -133 78 -220t230 -87q93 0 174 22.5t132 54t87.5 63.5t56.5 54.5t23 22.5q4 0 4 -2q6 -3 6 -10q0 -55 -54 -105t-133.5 -82.5t-167.5 -51.5t-159 -19q-179 0 -271 96t-92 244z" />
<glyph unicode="&#xaa;" d="M12 662q0 69 35 184.5t84.5 224t110.5 187.5t108 79h6l23 17q17 20 57 20q32 0 86 -16.5t62 -16.5q7 0 21 16.5t32 16.5q51 0 51 -45q0 -17 -7.5 -40.5t-20 -52t-15.5 -36.5q-2 -5 -19.5 -13t-19.5 -13q-45 -125 -79.5 -270.5t-34.5 -178.5q0 -51 28 -51q29 0 71 35 t72.5 69.5t32.5 34.5q4 0 4 -8q0 -10 -6.5 -25.5t-13.5 -21.5q-2 -1 -19 -17t-26 -24t-29.5 -25.5t-34.5 -28t-34.5 -24.5t-36 -22t-32.5 -13.5t-30 -5.5q-43 0 -51 51q0 90 68 318q-273 -379 -394 -379q-27 0 -38 17.5t-11 56.5zM106 719q0 -35 21 -35q43 0 154 126 t143 177q50 81 93.5 176t43.5 127q0 13 -10 13h-6q-13 0 -43 4t-49 4q-29 0 -62 -8q-30 -8 -99 -118.5t-127.5 -250.5t-58.5 -215z" />
<glyph unicode="&#xab;" horiz-adv-x="860" d="M174 524q0 23 99 164t143 195q16 22 39 22q14 0 14 -12q0 -13 -84.5 -140t-118.5 -173q4 -5 21 -26t33 -40.5t38 -47t39.5 -51t33.5 -46.5t25 -39.5t9 -24.5q0 -26 -21 -26l-16 8q-25 35 -58.5 68t-55.5 51.5t-69 54.5t-65 51q-6 6 -6 12zM461 524q0 23 102 167.5 t142 191.5q16 22 38 22q13 0 13 -12q0 -13 -84.5 -140t-118.5 -173q201 -235 201 -275q0 -26 -23 -26l-16 8q-25 35 -57.5 68t-56 52t-69 54t-65.5 51q-6 6 -6 12z" />
<glyph unicode="&#xac;" horiz-adv-x="1220" d="M59 383q0 13 17 23q32 4 277 18t473 26l229 13h11q61 0 83 -2.5t22 -14.5v-2l-24 -108q-1 -4 -7 -38t-13.5 -71t-16.5 -76t-18 -64t-15 -24q-17 0 -20 21q5 95 24 319l-987 -43q-11 0 -22.5 6.5t-12.5 16.5z" />
<glyph unicode="&#xad;" horiz-adv-x="591" d="M47 274q0 13 5.5 24.5t14.5 19t20 14t21.5 10.5t19.5 7t14 4l5 1q15 0 15 -10q0 -12 -10 -22q119 -9 172 -9q40 0 65 2q74 2 105 4q36 0 36 -12q0 -21 -138.5 -40t-254.5 -19q-7 0 -21 1t-20 1q-3 0 -9 -1t-9 -1q-13 0 -22 7t-9 19z" />
<glyph unicode="&#xae;" horiz-adv-x="1306" d="M258 901q0 69 29 139t80.5 127.5t132 94t174.5 36.5q144 0 217.5 -70t73.5 -177q0 -69 -31 -139.5t-85.5 -129.5t-138 -96t-178.5 -37q-135 0 -204.5 71.5t-69.5 180.5zM299 885q0 -94 60.5 -153.5t181.5 -59.5q110 0 200 65q-8 -2 -34 -2q-37 1 -97 53.5t-98 114.5 l-16 27q-3 -12 -13 -65t-20 -83t-23 -30q-18 0 -18 8q0 21 6 46.5t22 72.5t23 71q-14 18 -14 23q0 4 20 10q15 53 66 182q9 80 63 80q15 0 15 -6q0 -5 -9 -19.5t-10 -17.5q9 -1 34.5 -2.5t42 -3t40 -6.5t37.5 -12.5t24.5 -22.5t10.5 -35q0 -47 -24 -81.5t-63 -52t-79.5 -26 t-81.5 -8.5q-21 0 -21 -4q0 -7 8 -12q6 -7 32.5 -40.5t42.5 -51.5t40 -43t44.5 -37t37.5 -12q3 0 9.5 1t9.5 1q8 0 10 -2q71 58 112 142t41 167q0 96 -58 156.5t-173 60.5q-105 0 -195 -62.5t-138 -152t-48 -178.5zM510 975q12 -4 45 -4q62 0 118.5 28t76.5 86q4 10 4 29 q0 22 -12.5 36.5t-38.5 21.5t-48.5 9.5t-58.5 4.5h-2q-16 -24 -44.5 -98t-39.5 -113z" />
<glyph unicode="&#xaf;" horiz-adv-x="466" d="M45 872q0 19 52.5 32.5t105.5 13.5q71 0 157 -10.5t86 -26.5q0 -9 -21 -15t-32 -6h-297q-51 0 -51 12z" />
<glyph unicode="&#xb0;" horiz-adv-x="579" d="M133 831q0 72 52 124.5t124 52.5t124 -52.5t52 -124.5t-52 -124t-124 -52t-124 52t-52 124zM178 831q0 -54 38.5 -92.5t92.5 -38.5t92.5 38.5t38.5 92.5t-38.5 93t-92.5 39t-92.5 -39t-38.5 -93z" />
<glyph unicode="&#xb1;" horiz-adv-x="776" d="M150 61q0 32 23 50t38 18q12 0 12 -10q0 -9 -4 -17q20 0 104 -2t130 -2q79 0 104 4v2h16q7 0 43 -4q19 -3 19 -6q0 -14 -154.5 -35.5t-253.5 -21.5q-31 0 -43 2q-2 0 -7 -1t-7 -1q-8 0 -14 8t-6 16zM189 530q0 1 0.5 4.5t0.5 4.5q0 16 17.5 30t42.5 17l203 -4 q4 12 18.5 62t24.5 77.5t26 65.5t33.5 56.5t36.5 18.5q13 0 16 -12q0 -24 -24.5 -110.5t-53.5 -159.5q4 0 71 2t110 2q72 0 90 -6q16 -10 16 -17q0 -14 -50 -19.5t-132 -9t-123 -10.5q-29 -116 -111 -286q-25 -52 -34 -52q-11 0 -11 31q0 41 9 55q18 57 35.5 117.5t27 98 t8.5 40.5q0 -4 -190 -4q-17 0 -28.5 0.5t-17.5 1.5t-8.5 3t-2.5 3z" />
<glyph unicode="&#xb2;" horiz-adv-x="1120" d="M59 594q0 44 70.5 77.5t155.5 33.5h10q282 158 385 237q46 38 74.5 64t64 66.5t53 83.5t17.5 89q0 70 -88 70q-81 0 -205 -51t-199 -121q-4 -6 -12 -6q-12 0 -12 16q0 9 8 14q105 90 240.5 150.5t261.5 60.5q114 0 114 -96q0 -97 -120 -221q-101 -106 -223.5 -188.5 t-325.5 -182.5q59 -6 191.5 -47t215.5 -41q66 0 105 23t39 55q0 45 -76 70q-8 3 -8 10q0 8 14 8q52 0 81.5 -33.5t29.5 -60.5q0 -53 -57.5 -86t-133.5 -33q-70 0 -148.5 27.5t-156.5 56.5t-143 31q-19 -6 -86.5 -51.5t-108.5 -45.5q-27 0 -27 21z" />
<glyph unicode="&#xb3;" horiz-adv-x="1245" d="M4 737q0 94 90.5 151.5t196.5 57.5q14 0 14 -12t-18 -12q-72 0 -138.5 -52t-66.5 -131q0 -67 58.5 -103t154.5 -36q66 0 133.5 13t130.5 40.5t111.5 65.5t78 92.5t29.5 116.5q0 64 -52 93.5t-130 29.5q-33 0 -88.5 -12.5t-67.5 -12.5q-24 0 -24 25q0 13 10.5 24.5 t26.5 11.5q52 0 108.5 10t113.5 31t93.5 60t36.5 90q0 26 -21.5 42.5t-62.5 16.5q-60 0 -148 -33t-145 -71q-4 -4 -10 -4q-8 0 -8 14t6.5 28.5t17.5 18.5q7 4 32.5 24t48.5 37t26 17q8 0 8 -10q0 -5 -2.5 -9.5t-8 -10t-6.5 -7.5q142 58 240 58q117 0 117 -93 q0 -66 -78.5 -130t-155.5 -79q197 -17 197 -155q0 -81 -55 -152t-139.5 -116t-181 -71t-185.5 -26q-130 0 -208.5 42.5t-78.5 127.5z" />
<glyph unicode="&#xb4;" horiz-adv-x="727" d="M213 1096q0 18 93 91.5t208 149.5q9 6 21 6q18 0 30.5 -17.5t12.5 -37.5q0 -21 -17 -31q-28 -16 -86.5 -45t-136 -67t-107.5 -53q-4 -2 -10 -2q-8 0 -8 6z" />
<glyph unicode="&#xb5;" horiz-adv-x="681" d="M-51 -283q0 117 39 243t123 316q8 21 26.5 66t29 72t19.5 57.5t9 46.5q0 10 -4.5 19t-4.5 16q0 2 4 22q35 131 66 173.5t102 42.5q29 0 35 -19q-1 -2 -35 -84t-64.5 -156.5t-66.5 -165.5t-58 -152.5t-22 -74.5q0 -8 7 -8q8 0 49 33q205 158 360 442q1 36 14 78.5 t48.5 81.5t85.5 39q21 0 24 -19q-6 -20 -45 -124.5t-63 -174.5q-34 -99 -64.5 -217.5t-42.5 -187.5q0 -2 -2.5 -15.5t-5 -22.5t-7.5 -24.5t-12 -26t-17 -21t-25 -16t-33 -5.5q-27 0 -27 22q0 8 6 17q24 43 140 489q-36 -52 -88 -119t-121 -148t-140.5 -144t-121.5 -82 q-14 -41 -30 -121.5t-16 -153.5q0 -177 109 -180q37 -3 37 -18q0 -10 -14.5 -17.5t-38.5 -7.5q-165 0 -164 224v5z" />
<glyph unicode="&#xb6;" horiz-adv-x="847" d="M154 1036q0 74 25.5 138t82 107.5t133.5 43.5q25 0 39 -2q18 -4 44 -14.5t51.5 -29.5t25.5 -38q0 -14 -16 -14q-5 0 -16 2t-13 2q-8 0 -8 -195q-19 -656 -19 -1077v-55q0 -7 -22.5 -23t-38.5 -16q-14 0 -14 20q0 85 19 399.5t19 516.5q-52 -21 -96 -21q-92 0 -144 76 t-52 180zM549 -115q0 30 9.5 176t10.5 201q15 645 15 772q0 54 -2 163t-2 163q0 55 18 55q13 0 37 -31t24 -59q0 -8 -2 -15.5t-4 -11.5l-2 -4q-26 -576 -26 -1335v-55q0 -7 -23 -23t-39 -16q-14 0 -14 20z" />
<glyph unicode="&#xb7;" horiz-adv-x="559" d="M219 606q0 43 42 84t83 41q9 0 12 -6q0 -25 -14 -77.5t-14 -55.5q0 -36 -66 -51q-43 0 -43 65z" />
<glyph unicode="&#xb8;" horiz-adv-x="458" d="M31 -551q0 16 24.5 21.5t59.5 8t69.5 10.5t59 37.5t24.5 80.5q0 25 -26.5 63.5t-53 80.5t-26.5 75q0 69 38.5 123.5t104.5 54.5q23 0 25 -14q-43 -7 -68.5 -45t-25.5 -84q0 -19 18.5 -47t40.5 -53t40.5 -61.5t18.5 -70.5q0 -67 -53.5 -115t-120 -67.5t-131.5 -19.5 q-7 0 -12.5 7t-5.5 15z" />
<glyph unicode="&#xb9;" horiz-adv-x="907" d="M55 586q0 22 46.5 40.5t97.5 30.5q38 65 158.5 290t166.5 308q-82 -49 -182 -86q-2 -2 -8 -2q-5 0 -8.5 4.5t-3.5 10.5q0 13 12 16q43 17 91 46t77 51t80 61l8 14q13 23 57 23q14 0 25.5 -5t11.5 -14q0 -8 -2 -10l-422 -694q85 14 189 14q12 0 12 -14q0 -7 -5.5 -13 t-13.5 -6q-27 0 -53.5 -2.5t-56 -9t-49.5 -11.5t-53.5 -17t-48 -17.5t-53 -21t-50.5 -19.5q-1 0 -2 -1t-2 -1q-7 0 -13 12t-6 23z" />
<glyph unicode="&#xba;" horiz-adv-x="534" d="M43 684q0 47 8 94q9 53 36.5 137.5t70.5 182t105.5 166.5t125.5 69h14q0 28 17 49t45 21q20 -2 32.5 -39t18 -81t22 -81.5t44.5 -40.5q39 -6 39 -22q0 -18 -39 -37q-22 -10 -47 -10q0 -99 -25 -192t-65 -161.5t-89 -121t-99.5 -79t-94.5 -26.5q-55 0 -87 43t-32 129z M135 674q0 -101 58 -101q29 0 66.5 27.5t75 78.5t70 115.5t52.5 147.5t20 166q-19 10 -46 72.5t-36 62.5q-34 0 -77 -60.5t-78.5 -143t-62.5 -160.5t-34 -119q-8 -47 -8 -86z" />
<glyph unicode="&#xbb;" horiz-adv-x="860" d="M174 276q0 15 83.5 140t119.5 174q-201 235 -201 274q0 27 23 27l16 -8q25 -34 58.5 -67.5t54.5 -51.5t70 -56t65 -51q6 -6 6 -12q0 -23 -102 -167t-142 -191q-19 -23 -39 -23q-12 0 -12 12zM494 276q0 15 83 140.5t119 173.5q-200 234 -200 274q0 27 22 27l17 -8 q25 -34 58.5 -68t53.5 -51t70.5 -56.5t64.5 -50.5q6 -6 6 -12q0 -23 -101.5 -167t-141.5 -191q-19 -23 -39 -23q-12 0 -12 12z" />
<glyph unicode="&#xbc;" horiz-adv-x="1910" d="M55 586q0 22 46.5 40.5t97.5 30.5q38 65 158.5 290t166.5 308q-82 -49 -182 -86q-2 -2 -8 -2q-5 0 -8.5 4.5t-3.5 10.5q0 13 12 16q43 17 91 46t77 51t80 61l8 14q13 23 57 23q14 0 25.5 -5t11.5 -14q0 -8 -2 -10l-422 -694q85 14 189 14q12 0 12 -14q0 -7 -5.5 -13 t-13.5 -6q-27 0 -53.5 -2.5t-56 -9t-49.5 -11.5t-53.5 -17t-48 -17.5t-53 -21t-50.5 -19.5q-1 0 -2 -1t-2 -1q-7 0 -13 12t-6 23zM449 293q0 55 118 183.5t262.5 251.5t267.5 218.5t136 95.5q17 0 29 -6l6 -12q0 -6 -13 -16q-133 -100 -305 -245.5t-312 -283.5t-140 -176 q0 -9 9 -18l9 -9q0 -5 -13 -9.5t-20 -4.5q-34 0 -34 31zM952 350q0 14 7.5 24t25 16.5t29.5 9.5t39 8q117 58 235.5 121t258.5 152.5t179 141.5q12 8 23 8q16 0 30.5 -6.5t14.5 -15.5q0 -2 -2 -4q-33 -43 -104 -133t-124.5 -161.5t-99.5 -139.5q88 -31 156 -31q36 0 69 22.5 t33 65.5q0 5 -2 15.5t-2 15.5q0 10 13 10q19 0 31 -32t12 -48q0 -80 -160 -80q-60 0 -170 25q-5 -9 -31.5 -51t-44 -71.5t-33.5 -67t-16 -58.5v-4q85 10 158 10q12 0 12 -14q0 -7 -5.5 -13t-13.5 -6q-24 0 -49.5 -3t-44.5 -5.5t-48.5 -11t-42 -11.5t-47 -16t-42 -16t-47 -19 t-43.5 -18h-4q-7 0 -13 11.5t-6 23.5q0 21 63 45.5t111 32.5l27 4v14q0 16 4 34.5t9.5 35t15.5 38.5t17 36t19.5 35.5t18 30t17.5 27t12 19.5q-98 27 -164 27q-91 0 -244 -58h-10q-12 0 -19.5 10.5t-7.5 24.5zM1147 420q66 4 88 4q63 0 180 -37q7 10 71.5 110t110.5 156 l31 39q-164 -110 -481 -272z" />
<glyph unicode="&#xbd;" horiz-adv-x="2078" d="M55 586q0 22 46.5 40.5t97.5 30.5q38 65 158.5 290t166.5 308q-82 -49 -182 -86q-2 -2 -8 -2q-5 0 -8.5 4.5t-3.5 10.5q0 13 12 16q43 17 91 46t77 51t80 61l8 14q13 23 57 23q14 0 25.5 -5t11.5 -14q0 -8 -2 -10l-422 -694q85 14 189 14q12 0 12 -14q0 -7 -5.5 -13 t-13.5 -6q-27 0 -53.5 -2.5t-56 -9t-49.5 -11.5t-53.5 -17t-48 -17.5t-53 -21t-50.5 -19.5q-1 0 -2 -1t-2 -1q-7 0 -13 12t-6 23zM657 293q0 55 118 183.5t263 251.5t268 218.5t136 95.5q16 0 28 -6q0 -1 3.5 -4.5t3.5 -7.5q0 -6 -13 -16q-133 -100 -305 -245.5t-312 -283.5 t-140 -176q0 -9 9 -18l9 -9q0 -5 -13 -9.5t-20 -4.5q-35 0 -35 31zM999 12q0 44 70.5 77.5t155.5 33.5h10q282 158 385 237q46 37 75 64t64 67.5t52.5 83.5t17.5 89q0 69 -88 69q-81 0 -205 -51t-199 -121q-4 -6 -12 -6q-12 0 -12 16q0 10 8 15q105 90 240.5 150.5 t261.5 60.5q114 0 114 -97t-120 -221q-101 -105 -223 -187.5t-326 -182.5q59 -6 191.5 -47.5t215.5 -41.5q66 0 105 23t39 55q0 45 -76 70q-8 3 -8 10q0 8 14 8q52 0 81.5 -33.5t29.5 -60.5q0 -53 -57.5 -86t-133.5 -33q-70 0 -148.5 27.5t-156.5 56.5t-143 31 q-19 -6 -86.5 -51t-108.5 -45q-27 0 -27 20z" />
<glyph unicode="&#xbe;" horiz-adv-x="2107" d="M4 737q0 94 90.5 151.5t196.5 57.5q14 0 14 -12t-18 -12q-72 0 -138.5 -52t-66.5 -131q0 -67 58.5 -103t154.5 -36q66 0 133.5 13t130.5 40.5t111.5 65.5t78 92.5t29.5 116.5q0 64 -52 93.5t-130 29.5q-33 0 -88.5 -12.5t-67.5 -12.5q-24 0 -24 25q0 13 10.5 24.5 t26.5 11.5q52 0 108.5 10t113.5 31t93.5 60t36.5 90q0 26 -21.5 42.5t-62.5 16.5q-60 0 -148 -33t-145 -71q-4 -4 -10 -4q-8 0 -8 14t6.5 28.5t17.5 18.5q7 4 32.5 24t48.5 37t26 17q8 0 8 -10q0 -5 -2.5 -9.5t-8 -10t-6.5 -7.5q142 58 240 58q117 0 117 -93 q0 -66 -78.5 -130t-155.5 -79q197 -17 197 -155q0 -81 -55 -152t-139.5 -116t-181 -71t-185.5 -26q-130 0 -208.5 42.5t-78.5 127.5zM711 293q0 55 118 183.5t262.5 251.5t267.5 218.5t136 95.5q17 0 29 -6l6 -12q0 -7 -12 -16q-133 -100 -305.5 -245.5t-312.5 -283.5 t-140 -176q0 -9 9 -18l9 -9q0 -5 -13 -9.5t-20 -4.5q-34 0 -34 31zM1157 350q0 18 16.5 30.5t32.5 16.5t51 11q118 58 236 121t258.5 152.5t179.5 141.5q12 8 23 8q16 0 30.5 -6.5t14.5 -15.5q0 -2 -2 -4q-33 -43 -104 -133t-124.5 -161.5t-99.5 -139.5q88 -31 156 -31 q36 0 69 22.5t33 65.5q0 5 -2 15.5t-2 15.5q0 10 12 10q19 0 31 -32t12 -48q0 -80 -159 -80q-60 0 -170 25q-5 -9 -31.5 -51t-44 -71.5t-33.5 -67t-16 -58.5v-4q85 10 157 10q13 0 13 -14q0 -7 -5.5 -13t-13.5 -6q-24 0 -49.5 -3t-44.5 -5.5t-48.5 -11t-42 -11.5t-47 -16 t-42 -16t-47 -19t-43.5 -18h-4q-7 0 -13 11.5t-6 23.5q0 21 63 45.5t111 32.5l27 4v14q0 16 4 34.5t9.5 35t15.5 38.5t17 36t19.5 35.5t18 30t17.5 27t12 19.5q-98 27 -164 27q-91 0 -244 -58h-10q-12 0 -19.5 10.5t-7.5 24.5zM1352 420q66 4 88 4q63 0 180 -37 q7 10 71.5 110t110.5 156l31 39q-164 -110 -481 -272z" />
<glyph unicode="&#xbf;" horiz-adv-x="950" d="M-141 -295q0 48 20.5 96t61 94.5t91 91.5t120.5 94.5t138.5 94.5t154.5 100l24 15q36 23 62 54.5t37 55.5t25.5 61t22.5 52h2q10 14 23 14q14 0 25.5 -18.5t11.5 -46.5q0 -63 -49 -123q-21 -27 -80 -67.5t-128 -81t-146.5 -95.5t-139 -109.5t-102.5 -125t-41 -140.5 t54 -111.5t167 -41.5q106 0 202.5 32.5t160 97t63.5 146.5q0 31 -5 52.5t-12 31t-16 15.5t-16 7t-12 3.5t-5 7.5q0 16 15 24.5t33 8.5q44 0 83 -42.5t39 -101.5q0 -54 -38 -106q-81 -109 -247 -182.5t-321 -73.5q-122 0 -200 53.5t-78 163.5zM666 711q22 115 29 133 q16 42 55 46q5 1 12 1q33 0 33 -78v-2q0 -34 -48.5 -69t-74.5 -35q-6 0 -6 4z" />
<glyph unicode="&#xc0;" horiz-adv-x="1267" d="M82 0q0 1 4 33q41 229 207 520q-17 0 -47.5 -1t-55.5 -1q-20 0 -20 14q0 15 17.5 32t37.5 17h103q196 318 503 646q-12 16 -12 32q0 22 22 42t68 20q22 0 33.5 -11.5t11.5 -29.5q0 -14 -6 -29q38 -95 90 -301t74 -367q68 -3 68 -22q0 -21 -62 -31q-1 0 14.5 -106.5 t32.5 -236t17 -173.5q0 -21 -29.5 -38t-56.5 -17q-25 0 -25 16v25q0 78 -16 270t-25 256q-627 -6 -655 -6q-183 -333 -213 -545q-2 -22 -41 -22h-9h-8h-6.5t-5.5 0.5t-4 1.5t-3.5 2.5t-2 4t-0.5 5.5zM403 610l621 4q-15 115 -48.5 258t-57 223t-39.5 128 q-130 -133 -265 -303.5t-211 -309.5zM688 1657q0 20 12.5 37.5t30.5 17.5q9 0 21 -6q113 -75 206 -149.5t93 -92.5q0 -6 -7 -6q-6 0 -10 2q-302 151 -329 166q-17 8 -17 31z" />
<glyph unicode="&#xc1;" horiz-adv-x="1267" d="M82 0q0 1 4 33q41 229 207 520q-17 0 -47.5 -1t-55.5 -1q-20 0 -20 14q0 15 17.5 32t37.5 17h103q196 318 503 646q-12 16 -12 32q0 22 22 42t68 20q22 0 33.5 -11.5t11.5 -29.5q0 -14 -6 -29q38 -95 90 -301t74 -367q68 -3 68 -22q0 -21 -62 -31q-1 0 14.5 -106.5 t32.5 -236t17 -173.5q0 -21 -29.5 -38t-56.5 -17q-25 0 -25 16v25q0 78 -16 270t-25 256q-627 -6 -655 -6q-183 -333 -213 -545q-2 -22 -41 -22h-9h-8h-6.5t-5.5 0.5t-4 1.5t-3.5 2.5t-2 4t-0.5 5.5zM403 610l621 4q-15 115 -48.5 258t-57 223t-39.5 128 q-130 -133 -265 -303.5t-211 -309.5zM774 1462q0 18 93.5 92t207.5 150q9 6 21 6q18 0 30.5 -17.5t12.5 -37.5q0 -21 -17 -31q-27 -15 -329 -166q-4 -2 -11 -2q-8 0 -8 6z" />
<glyph unicode="&#xc2;" horiz-adv-x="1267" d="M82 0q0 1 4 33q41 229 207 520q-17 0 -47.5 -1t-55.5 -1q-20 0 -20 14q0 15 17.5 32t37.5 17h103q196 318 503 646q-12 16 -12 32q0 22 22 42t68 20q22 0 33.5 -11.5t11.5 -29.5q0 -14 -6 -29q38 -95 90 -301t74 -367q68 -3 68 -22q0 -21 -62 -31q-1 0 14.5 -106.5 t32.5 -236t17 -173.5q0 -21 -29.5 -38t-56.5 -17q-25 0 -25 16v25q0 78 -16 270t-25 256q-627 -6 -655 -6q-183 -333 -213 -545q-2 -22 -41 -22h-9h-8h-6.5t-5.5 0.5t-4 1.5t-3.5 2.5t-2 4t-0.5 5.5zM403 610l621 4q-15 115 -48.5 258t-57 223t-39.5 128 q-130 -133 -265 -303.5t-211 -309.5zM700 1436q0 6 9 18q19 24 128 126t128 106q11 -4 70.5 -98.5t76.5 -127.5q2 -4 2 -14q0 -16 -10 -16q-2 0 -6 4q-26 23 -83 84.5t-77 91.5q-34 -31 -130.5 -105.5t-102.5 -74.5q-5 0 -5 6z" />
<glyph unicode="&#xc3;" horiz-adv-x="1267" d="M82 0q0 1 4 33q41 229 207 520q-17 0 -47.5 -1t-55.5 -1q-20 0 -20 14q0 15 17.5 32t37.5 17h103q196 318 503 646q-12 16 -12 32q0 22 22 42t68 20q22 0 33.5 -11.5t11.5 -29.5q0 -14 -6 -29q38 -95 90 -301t74 -367q68 -3 68 -22q0 -21 -62 -31q-1 0 14.5 -106.5 t32.5 -236t17 -173.5q0 -21 -29.5 -38t-56.5 -17q-25 0 -25 16v25q0 78 -16 270t-25 256q-627 -6 -655 -6q-183 -333 -213 -545q-2 -22 -41 -22h-9h-8h-6.5t-5.5 0.5t-4 1.5t-3.5 2.5t-2 4t-0.5 5.5zM403 610l621 4q-15 115 -48.5 258t-57 223t-39.5 128 q-130 -133 -265 -303.5t-211 -309.5zM692 1522q0 13 34.5 43t53.5 41q33 20 74 20q34 0 98 -21.5t97 -21.5q49 0 86 43q12 0 12 -8q0 -39 -57 -70.5t-80 -31.5q-36 0 -102 27.5t-101 27.5q-26 0 -48 -13.5t-37.5 -26.5t-25.5 -13q-4 0 -4 4z" />
<glyph unicode="&#xc4;" horiz-adv-x="1267" d="M82 0q0 1 4 33q41 229 207 520q-17 0 -47.5 -1t-55.5 -1q-20 0 -20 14q0 15 17.5 32t37.5 17h103q196 318 503 646q-12 16 -12 32q0 22 22 42t68 20q22 0 33.5 -11.5t11.5 -29.5q0 -14 -6 -29q38 -95 90 -301t74 -367q68 -3 68 -22q0 -21 -62 -31q-1 0 14.5 -106.5 t32.5 -236t17 -173.5q0 -21 -29.5 -38t-56.5 -17q-25 0 -25 16v25q0 78 -16 270t-25 256q-627 -6 -655 -6q-183 -333 -213 -545q-2 -22 -41 -22h-9h-8h-6.5t-5.5 0.5t-4 1.5t-3.5 2.5t-2 4t-0.5 5.5zM403 610l621 4q-15 115 -48.5 258t-57 223t-39.5 128 q-130 -133 -265 -303.5t-211 -309.5zM739 1599q0 37 35 72t70 35q7 0 10 -6q0 -22 -12.5 -66t-12.5 -47q0 -13 -10 -22.5t-19 -13t-26 -7.5q-35 0 -35 55zM999 1599q0 36 35.5 71.5t69.5 35.5q9 0 12 -6q0 -22 -12 -66t-12 -47q0 -13 -10.5 -22.5t-19.5 -13t-26 -7.5 q-37 0 -37 55z" />
<glyph unicode="&#xc5;" horiz-adv-x="1267" d="M82 0q0 1 4 33q41 229 207 520q-17 0 -47.5 -1t-55.5 -1q-20 0 -20 14q0 15 17.5 32t37.5 17h103q196 318 503 646q-12 12 -12 32q0 26 25 43q-47 16 -47 72q0 78 60 146.5t124 68.5q40 0 64 -30t24 -70q0 -57 -36.5 -108t-90.5 -73q10 -13 10 -32q0 -9 -4 -25 q38 -95 90 -301t74 -367q68 -3 68 -22q0 -21 -62 -31q-1 0 14.5 -106.5t32.5 -236t17 -173.5q0 -21 -29.5 -38t-56.5 -17q-25 0 -25 16v25q0 78 -16 270t-25 256q-627 -6 -655 -6q-183 -333 -213 -545q-2 -22 -41 -22h-9h-8h-6.5t-5.5 0.5t-4 1.5t-3.5 2.5t-2 4t-0.5 5.5z M403 610l621 4q-15 115 -48.5 258t-57 223t-39.5 128q-130 -133 -265 -303.5t-211 -309.5zM844 1425q0 -57 59 -57q51 0 88 47.5t37 106.5q0 69 -53 69q-39 0 -85 -51.5t-46 -114.5z" />
<glyph unicode="&#xc6;" horiz-adv-x="1966" d="M37 -8q0 9 14 41q100 226 346 520q-17 0 -47 -1t-55 -1q-16 0 -16 10q0 15 22.5 34t44.5 19h103q405 451 665 666h-27q-45 0 -45 16q0 8 6.5 13.5t22.5 9t28.5 5t41 3.5t43.5 4q15 1 28 12t21.5 23.5t26.5 22.5t43 10q40 0 40 -31q-5 -10 -7 -13t-4 -6.5t-7 -17.5 q7 0 36 -0.5t85.5 -1t132.5 -0.5q33 0 149 1t201 1q31 0 31 -31q0 -24 -21.5 -57t-42.5 -33q-8 0 -17 12.5t-22 26t-30 15.5q-35 4 -174 4q-19 0 -51 -1t-46 -1q-9 0 -251 4q-15 -41 -60.5 -302t-52.5 -350q386 0 551 7q12 0 12 -13q0 -15 -21 -33.5t-57 -23.5h-495 q-10 -40 -26.5 -211.5t-16.5 -251.5q0 -23 2 -29q27 0 216.5 -1t348.5 -1q133 0 236 33h2q8 0 8 -20q0 -25 -16.5 -49.5t-45.5 -24.5q-133 0 -406.5 -1t-422.5 -1q-35 0 -35 25l5 50q34 349 56 486q-69 -1 -191.5 -2.5t-223.5 -2.5t-193 -1q-126 -155 -217 -286.5 t-145 -258.5q-7 -22 -45 -22q-32 0 -34 3q-1 1 -1 3zM528 614h566q23 167 58 365.5t62 302.5q-99 -55 -327.5 -281t-358.5 -387z" />
<glyph unicode="&#xc7;" horiz-adv-x="1400" d="M121 561q0 126 32 242.5t97.5 215.5t157.5 172.5t219 115t274 41.5q359 0 359 -250q0 -61 -23.5 -94t-58.5 -33q-43 0 -43 39q0 25 20.5 65.5t20.5 57.5q0 48 -42.5 86t-104 57.5t-124.5 19.5q-155 0 -286 -63t-216.5 -167t-133.5 -237t-48 -274q0 -108 29.5 -204 t86 -172t148.5 -120.5t209 -44.5q100 0 191.5 24.5t154.5 60.5t117 79t85.5 79t53.5 60.5t27 24.5q10 0 10 -31q0 -80 -65 -148t-162 -109t-201 -64t-192 -23h-31q-41 -35 -41 -92q0 -17 18.5 -42t40 -47t40 -54.5t18.5 -63.5q0 -45 -30 -81t-76.5 -57t-96.5 -31.5 t-96 -10.5q-7 0 -13 6t-6 14q0 15 24 19.5t58.5 7t69 9.5t58.5 33.5t24 72.5q0 22 -26 56t-52.5 71t-26.5 67q0 82 52 129q-243 24 -371.5 180t-128.5 408z" />
<glyph unicode="&#xc8;" horiz-adv-x="1181" d="M113 10q0 16 24.5 41t46.5 29q-2 14 -2 53q0 167 37 481h-26q-21 0 -21 15t16 31.5t37 17.5q48 389 97 571h-109q-45 3 -45 17q0 10 26.5 21t59.5 11h80q12 68 40.5 93.5t84.5 25.5q30 0 30 -20q0 -8 -7 -25.5t-17.5 -40t-13.5 -31.5q7 0 36 -0.5t85.5 -1t132.5 -0.5 q33 0 149 1t201 1q30 0 30 -30q0 -24 -21.5 -57t-41.5 -33q-8 0 -28 25.5t-42 27.5q-35 4 -174 4q-20 0 -51 -1t-45 -1q-10 0 -252 4q-31 -103 -64 -273t-47 -288q463 0 586 6q13 0 13 -12q0 -15 -21 -34t-57 -24h-529q-24 -235 -24 -397q0 -89 10 -154q27 0 200 -1t332 -1 q133 0 236 33h2q8 0 8 -20q0 -25 -16 -49.5t-45 -24.5q-44 0 -139.5 -1t-145.5 -1q-14 0 -104 -0.5t-163.5 -0.5t-160.5 1t-137.5 4t-50.5 8zM514 1686q0 20 12.5 37.5t30.5 17.5q9 0 21 -6q113 -75 206 -149.5t93 -92.5q0 -6 -7 -6q-6 0 -10 2q-312 156 -330 166 q-16 8 -16 31z" />
<glyph unicode="&#xc9;" horiz-adv-x="1181" d="M113 10q0 16 24.5 41t46.5 29q-2 14 -2 53q0 167 37 481h-26q-21 0 -21 15t16 31.5t37 17.5q48 389 97 571h-109q-45 3 -45 17q0 10 26.5 21t59.5 11h80q12 68 40.5 93.5t84.5 25.5q30 0 30 -20q0 -8 -7 -25.5t-17.5 -40t-13.5 -31.5q7 0 36 -0.5t85.5 -1t132.5 -0.5 q33 0 149 1t201 1q30 0 30 -30q0 -24 -21.5 -57t-41.5 -33q-8 0 -28 25.5t-42 27.5q-35 4 -174 4q-20 0 -51 -1t-45 -1q-10 0 -252 4q-31 -103 -64 -273t-47 -288q463 0 586 6q13 0 13 -12q0 -15 -21 -34t-57 -24h-529q-24 -235 -24 -397q0 -89 10 -154q27 0 200 -1t332 -1 q133 0 236 33h2q8 0 8 -20q0 -25 -16 -49.5t-45 -24.5q-44 0 -139.5 -1t-145.5 -1q-14 0 -104 -0.5t-163.5 -0.5t-160.5 1t-137.5 4t-50.5 8zM565 1479q0 18 93 91.5t208 149.5q9 6 21 6q18 0 30.5 -17.5t12.5 -37.5q0 -21 -17 -31q-9 -5 -329 -165q-4 -2 -11 -2q-8 0 -8 6z " />
<glyph unicode="&#xca;" horiz-adv-x="1181" d="M113 10q0 16 24.5 41t46.5 29q-2 14 -2 53q0 167 37 481h-26q-21 0 -21 15t16 31.5t37 17.5q48 389 97 571h-109q-45 3 -45 17q0 10 26.5 21t59.5 11h80q12 68 40.5 93.5t84.5 25.5q30 0 30 -20q0 -8 -7 -25.5t-17.5 -40t-13.5 -31.5q7 0 36 -0.5t85.5 -1t132.5 -0.5 q33 0 149 1t201 1q30 0 30 -30q0 -24 -21.5 -57t-41.5 -33q-8 0 -28 25.5t-42 27.5q-35 4 -174 4q-20 0 -51 -1t-45 -1q-10 0 -252 4q-31 -103 -64 -273t-47 -288q463 0 586 6q13 0 13 -12q0 -15 -21 -34t-57 -24h-529q-24 -235 -24 -397q0 -89 10 -154q27 0 200 -1t332 -1 q133 0 236 33h2q8 0 8 -20q0 -25 -16 -49.5t-45 -24.5q-44 0 -139.5 -1t-145.5 -1q-14 0 -104 -0.5t-163.5 -0.5t-160.5 1t-137.5 4t-50.5 8zM492 1436q0 7 8 18q19 24 128 126t128 106q11 -4 70.5 -98.5t76.5 -127.5q2 -4 2 -14q0 -16 -10 -16q-2 0 -6 4q-26 23 -83 84.5 t-77 91.5q-34 -31 -130.5 -105.5t-102.5 -74.5q-4 0 -4 6z" />
<glyph unicode="&#xcb;" horiz-adv-x="1181" d="M113 10q0 16 24.5 41t46.5 29q-2 14 -2 53q0 167 37 481h-26q-21 0 -21 15t16 31.5t37 17.5q48 389 97 571h-109q-45 3 -45 17q0 10 26.5 21t59.5 11h80q12 68 40.5 93.5t84.5 25.5q30 0 30 -20q0 -8 -7 -25.5t-17.5 -40t-13.5 -31.5q7 0 36 -0.5t85.5 -1t132.5 -0.5 q33 0 149 1t201 1q30 0 30 -30q0 -24 -21.5 -57t-41.5 -33q-8 0 -28 25.5t-42 27.5q-35 4 -174 4q-20 0 -51 -1t-45 -1q-10 0 -252 4q-31 -103 -64 -273t-47 -288q463 0 586 6q13 0 13 -12q0 -15 -21 -34t-57 -24h-529q-24 -235 -24 -397q0 -89 10 -154q27 0 200 -1t332 -1 q133 0 236 33h2q8 0 8 -20q0 -25 -16 -49.5t-45 -24.5q-44 0 -139.5 -1t-145.5 -1q-14 0 -104 -0.5t-163.5 -0.5t-160.5 1t-137.5 4t-50.5 8zM569 1599q0 37 35 72t70 35q7 0 10 -6q0 -22 -12.5 -66t-12.5 -47q0 -13 -10 -22.5t-19 -13t-26 -7.5q-35 0 -35 55zM829 1599 q0 36 35.5 71.5t69.5 35.5q9 0 12 -6q0 -22 -12 -66t-12 -47q0 -13 -10.5 -22.5t-19.5 -13t-26 -7.5q-37 0 -37 55z" />
<glyph unicode="&#xcc;" horiz-adv-x="937" d="M94 14q0 15 18 32t38 17h227q25 266 38 391.5t41 342.5t60 379v61q0 8 2 20.5t2 20.5h-237q-21 0 -21 14q0 15 17.5 32t37.5 17h224q14 31 47 53.5t82 22.5q30 0 30 -20v-4l-22 -50q156 0 264 5q12 0 12 -13q0 -15 -20.5 -33.5t-56.5 -23.5h-224v-4 q-77 -218 -128.5 -612.5t-51.5 -565.5q0 -24 6 -33q209 3 295 7q12 0 12 -13q0 -15 -20.5 -33.5t-56.5 -23.5h-242q-19 -16 -45 -16t-39 16h-268q-21 0 -21 14zM438 1686q0 20 12.5 37.5t30.5 17.5q9 0 21 -6q113 -75 206 -149.5t93 -92.5q0 -6 -6 -6q-7 0 -11 2 q-302 151 -329 166q-17 9 -17 31z" />
<glyph unicode="&#xcd;" horiz-adv-x="937" d="M94 14q0 15 18 32t38 17h227q25 266 38 391.5t41 342.5t60 379v61q0 8 2 20.5t2 20.5h-237q-21 0 -21 14q0 15 17.5 32t37.5 17h224q14 31 47 53.5t82 22.5q30 0 30 -20v-4l-22 -50q156 0 264 5q12 0 12 -13q0 -15 -20.5 -33.5t-56.5 -23.5h-224v-4 q-77 -218 -128.5 -612.5t-51.5 -565.5q0 -24 6 -33q209 3 295 7q12 0 12 -13q0 -15 -20.5 -33.5t-56.5 -23.5h-242q-19 -16 -45 -16t-39 16h-268q-21 0 -21 14zM494 1493q0 18 93.5 92t207.5 150q9 6 20 6q18 0 30.5 -17.5t12.5 -37.5q0 -21 -16 -31q-18 -10 -330 -166 q-4 -2 -10 -2q-8 0 -8 6z" />
<glyph unicode="&#xce;" horiz-adv-x="937" d="M94 14q0 15 18 32t38 17h227q25 266 38 391.5t41 342.5t60 379v61q0 8 2 20.5t2 20.5h-237q-21 0 -21 14q0 15 17.5 32t37.5 17h224q14 31 47 53.5t82 22.5q30 0 30 -20v-4l-22 -50q156 0 264 5q12 0 12 -13q0 -15 -20.5 -33.5t-56.5 -23.5h-224v-4 q-77 -218 -128.5 -612.5t-51.5 -565.5q0 -24 6 -33q209 3 295 7q12 0 12 -13q0 -15 -20.5 -33.5t-56.5 -23.5h-242q-19 -16 -45 -16t-39 16h-268q-21 0 -21 14zM418 1436q0 7 8 18q19 24 128 126t128 106q11 -4 70.5 -98.5t76.5 -127.5q2 -4 2 -14q0 -16 -10 -16q-2 0 -6 4 q-26 23 -83 84.5t-77 91.5q-34 -31 -130.5 -105.5t-102.5 -74.5q-4 0 -4 6z" />
<glyph unicode="&#xcf;" horiz-adv-x="937" d="M94 14q0 15 18 32t38 17h227q25 266 38 391.5t41 342.5t60 379v61q0 8 2 20.5t2 20.5h-237q-21 0 -21 14q0 15 17.5 32t37.5 17h224q14 31 47 53.5t82 22.5q30 0 30 -20v-4l-22 -50q156 0 264 5q12 0 12 -13q0 -15 -20.5 -33.5t-56.5 -23.5h-224v-4 q-77 -218 -128.5 -612.5t-51.5 -565.5q0 -24 6 -33q209 3 295 7q12 0 12 -13q0 -15 -20.5 -33.5t-56.5 -23.5h-242q-19 -16 -45 -16t-39 16h-268q-21 0 -21 14zM477 1599q0 37 35 72t70 35q7 0 10 -6q0 -22 -12.5 -66t-12.5 -47q0 -13 -10 -22.5t-19 -13t-26 -7.5 q-35 0 -35 55zM737 1599q0 36 35.5 71.5t69.5 35.5q9 0 12 -6q0 -22 -12.5 -66t-12.5 -47q0 -13 -10 -22.5t-19 -13t-26 -7.5q-37 0 -37 55z" />
<glyph unicode="&#xd0;" horiz-adv-x="1587" d="M25 506q0 18 19.5 26.5t68.5 8.5q40 0 98 -4q32 400 108 698h-16q-22 0 -62.5 -6t-43.5 -6q-15 0 -15 20q0 22 20.5 45t53.5 23h80q9 55 34.5 80.5t78.5 25.5q28 0 28 -22q-19 -42 -31 -78q29 2 91 2q105 0 212 -15.5t214.5 -46t200.5 -81.5t165.5 -116.5t114 -157 t41.5 -197.5q0 -100 -40 -191.5t-107.5 -162.5t-157.5 -132t-189 -104t-202 -73.5t-197 -45t-174 -14.5q-104 0 -166 24t-62 62q0 16 15 16q6 0 12 -2q-16 73 -16 209q0 85 6 176q-39 -2 -109 -2q-28 0 -50.5 11.5t-22.5 29.5zM291 342q0 -45 4 -127q3 -99 38.5 -138.5 t145.5 -39.5q188 0 429 113t349 253q81 103 116.5 190t35.5 179q0 95 -53 174.5t-141.5 133t-206 90.5t-244 54t-258.5 17q-51 0 -80 -2q-103 -349 -127 -702q240 0 240 -13q0 -28 -244 -51q-4 -90 -4 -131z" />
<glyph unicode="&#xd1;" horiz-adv-x="1449" d="M135 887q0 221 61 351t175 130q32 0 92 -29q9 15 24 15q13 0 23 -12t10 -31v-11q144 -118 303 -388.5t262 -522.5q42 373 117 735q2 8 6 33t7.5 41.5t10.5 41t15.5 41t20 33t28.5 24.5t37 8q31 0 31 -21q0 -16 -22.5 -66t-24.5 -57q-64 -182 -114 -440.5t-71 -474.5 l25 -84q5 -18 10 -80q0 -55 -22 -97t-52 -42q-13 0 -21.5 10.5t-8.5 28.5q0 42 14 210q-60 148 -115 267.5t-127.5 254.5t-159.5 256t-184 220l-4 -12q-62 -178 -125 -499.5t-63 -559.5q0 -92 8 -160q-3 -16 -20 -16q-36 0 -57 25.5t-21 72.5q0 67 12 151q46 401 225 1039 q-50 33 -88 33q-48 0 -83.5 -51.5t-54 -124.5t-29.5 -146t-16.5 -124.5t-8.5 -51.5q-25 0 -25 80zM655 1540q0 13 34.5 43t53.5 41q35 21 74 21q34 0 98 -21.5t97 -21.5q49 0 86 43q12 0 12 -9q0 -39 -57 -70.5t-80 -31.5q-36 0 -102 27.5t-101 27.5q-26 0 -48 -13.5 t-37.5 -26.5t-25.5 -13q-4 0 -4 4z" />
<glyph unicode="&#xd2;" horiz-adv-x="1630" d="M127 508q0 167 68.5 329t203.5 287q-25 -11 -60.5 -29t-56 -28t-24.5 -10q-8 0 -13 5.5t-5 12.5q0 21 81 61t156 68q107 104 242 172t272 68q57 0 100.5 -18.5t43.5 -59.5q0 -42 -48 -109q211 -31 329 -153t118 -344q0 -146 -46.5 -274.5t-126.5 -222.5t-184.5 -162.5 t-223.5 -103t-240 -34.5q-145 0 -259 43t-184.5 118t-106.5 172.5t-36 211.5zM225 537q0 -107 30 -200t89.5 -166.5t158 -116t224.5 -42.5q80 0 163.5 22.5t163 65t149.5 108t123 145.5t83.5 183.5t30.5 217.5q0 181 -104.5 311t-268.5 152q-32 -37 -51 -37q-10 0 -10 8 q0 18 18 33q-29 2 -84 2q-211 0 -422 -58q-150 -112 -221.5 -279t-71.5 -349zM584 1235q118 37 301 37q97 0 168 -8q18 44 18 69q0 49 -78 49q-98 0 -215 -43t-194 -104zM727 1686q0 20 12.5 37.5t30.5 17.5q9 0 21 -6q113 -75 206 -149.5t93 -92.5q0 -6 -7 -6q-6 0 -10 2 q-312 156 -330 166q-16 8 -16 31z" />
<glyph unicode="&#xd3;" horiz-adv-x="1630" d="M127 508q0 167 68.5 329t203.5 287q-25 -11 -60.5 -29t-56 -28t-24.5 -10q-8 0 -13 5.5t-5 12.5q0 21 81 61t156 68q107 104 242 172t272 68q57 0 100.5 -18.5t43.5 -59.5q0 -42 -48 -109q211 -31 329 -153t118 -344q0 -146 -46.5 -274.5t-126.5 -222.5t-184.5 -162.5 t-223.5 -103t-240 -34.5q-145 0 -259 43t-184.5 118t-106.5 172.5t-36 211.5zM225 537q0 -107 30 -200t89.5 -166.5t158 -116t224.5 -42.5q80 0 163.5 22.5t163 65t149.5 108t123 145.5t83.5 183.5t30.5 217.5q0 181 -104.5 311t-268.5 152q-32 -37 -51 -37q-10 0 -10 8 q0 18 18 33q-29 2 -84 2q-211 0 -422 -58q-150 -112 -221.5 -279t-71.5 -349zM584 1235q118 37 301 37q97 0 168 -8q18 44 18 69q0 49 -78 49q-98 0 -215 -43t-194 -104zM815 1493q0 18 93.5 92t207.5 150q9 6 21 6q18 0 30.5 -17.5t12.5 -37.5q0 -21 -17 -31 q-27 -15 -329 -166q-4 -2 -11 -2q-8 0 -8 6z" />
<glyph unicode="&#xd4;" horiz-adv-x="1630" d="M127 508q0 167 68.5 329t203.5 287q-25 -11 -60.5 -29t-56 -28t-24.5 -10q-8 0 -13 5.5t-5 12.5q0 21 81 61t156 68q107 104 242 172t272 68q57 0 100.5 -18.5t43.5 -59.5q0 -42 -48 -109q211 -31 329 -153t118 -344q0 -146 -46.5 -274.5t-126.5 -222.5t-184.5 -162.5 t-223.5 -103t-240 -34.5q-145 0 -259 43t-184.5 118t-106.5 172.5t-36 211.5zM225 537q0 -107 30 -200t89.5 -166.5t158 -116t224.5 -42.5q80 0 163.5 22.5t163 65t149.5 108t123 145.5t83.5 183.5t30.5 217.5q0 181 -104.5 311t-268.5 152q-32 -37 -51 -37q-10 0 -10 8 q0 18 18 33q-29 2 -84 2q-211 0 -422 -58q-150 -112 -221.5 -279t-71.5 -349zM584 1235q118 37 301 37q97 0 168 -8q18 44 18 69q0 49 -78 49q-98 0 -215 -43t-194 -104zM764 1495q0 7 8 18q18 24 127.5 124t128.5 104q11 -4 71.5 -97t76.5 -124q2 -4 2 -15q0 -16 -11 -16 q-2 0 -6 4q-26 23 -83 84.5t-77 91.5q-34 -31 -130.5 -105.5t-102.5 -74.5q-4 0 -4 6z" />
<glyph unicode="&#xd5;" horiz-adv-x="1630" d="M127 508q0 167 68.5 329t203.5 287q-25 -11 -60.5 -29t-56 -28t-24.5 -10q-8 0 -13 5.5t-5 12.5q0 21 81 61t156 68q107 104 242 172t272 68q57 0 100.5 -18.5t43.5 -59.5q0 -42 -48 -109q211 -31 329 -153t118 -344q0 -146 -46.5 -274.5t-126.5 -222.5t-184.5 -162.5 t-223.5 -103t-240 -34.5q-145 0 -259 43t-184.5 118t-106.5 172.5t-36 211.5zM225 537q0 -107 30 -200t89.5 -166.5t158 -116t224.5 -42.5q80 0 163.5 22.5t163 65t149.5 108t123 145.5t83.5 183.5t30.5 217.5q0 181 -104.5 311t-268.5 152q-32 -37 -51 -37q-10 0 -10 8 q0 18 18 33q-29 2 -84 2q-211 0 -422 -58q-150 -112 -221.5 -279t-71.5 -349zM584 1235q118 37 301 37q97 0 168 -8q18 44 18 69q0 49 -78 49q-98 0 -215 -43t-194 -104zM768 1513q0 13 34.5 43t53.5 41q34 21 74 21q34 0 97.5 -21.5t96.5 -21.5q49 0 86 43q13 0 13 -8 q0 -39 -57.5 -71t-80.5 -32q-36 0 -101.5 28t-100.5 28q-26 0 -48 -13.5t-37.5 -27t-25.5 -13.5q-4 0 -4 4z" />
<glyph unicode="&#xd6;" horiz-adv-x="1630" d="M127 508q0 167 68.5 329t203.5 287q-25 -11 -60.5 -29t-56 -28t-24.5 -10q-8 0 -13 5.5t-5 12.5q0 21 81 61t156 68q107 104 242 172t272 68q57 0 100.5 -18.5t43.5 -59.5q0 -42 -48 -109q211 -31 329 -153t118 -344q0 -146 -46.5 -274.5t-126.5 -222.5t-184.5 -162.5 t-223.5 -103t-240 -34.5q-145 0 -259 43t-184.5 118t-106.5 172.5t-36 211.5zM225 537q0 -107 30 -200t89.5 -166.5t158 -116t224.5 -42.5q80 0 163.5 22.5t163 65t149.5 108t123 145.5t83.5 183.5t30.5 217.5q0 181 -104.5 311t-268.5 152q-32 -37 -51 -37q-10 0 -10 8 q0 18 18 33q-29 2 -84 2q-211 0 -422 -58q-150 -112 -221.5 -279t-71.5 -349zM584 1235q118 37 301 37q97 0 168 -8q18 44 18 69q0 49 -78 49q-98 0 -215 -43t-194 -104zM801 1599q0 37 34.5 72t69.5 35q7 0 10 -6q0 -22 -12 -66t-12 -47q0 -13 -10 -22.5t-19 -13t-26 -7.5 q-35 0 -35 55zM1061 1599q0 36 35 71.5t69 35.5q10 0 13 -6q0 -22 -12.5 -66t-12.5 -47q0 -13 -10 -22.5t-19 -13t-26 -7.5q-37 0 -37 55z" />
<glyph unicode="&#xd7;" horiz-adv-x="901" d="M186 217q0 12 24.5 39t57 57.5t37.5 36.5l127 131q-73 73 -127 131q-3 3 -26.5 25t-41.5 39.5t-34.5 38.5t-16.5 30q0 14 9.5 26.5t21.5 12.5q11 0 19 -8l239 -254q31 32 64.5 65.5t60 59.5t27.5 27q2 2 24.5 25t35 35t33 30t36 26.5t26.5 8.5q9 0 9 -8q0 -10 -14 -33 t-38 -47l-225 -230q40 -42 117.5 -113.5t117 -113.5t39.5 -61t-18 -19q-8 0 -10 2q-16 5 -35.5 19.5t-32 26.5t-35.5 36t-30 31q-21 18 -152 149l-239 -252q-8 -8 -19 -8q-12 0 -21.5 12.5t-9.5 26.5z" />
<glyph unicode="&#xd8;" horiz-adv-x="1601" d="M127 508q0 167 68.5 329t203.5 287q-25 -11 -60.5 -29t-56 -28t-24.5 -10q-8 0 -13 5.5t-5 12.5q0 21 81 61t156 68q107 104 242 172t272 68q57 0 100.5 -18.5t43.5 -59.5q0 -42 -48 -109q81 -15 93 -18q183 209 206 209q12 0 20.5 -11.5t8.5 -25.5q0 -16 -25 -48 t-75 -86t-60 -65q279 -117 279 -452q0 -146 -46.5 -274.5t-126.5 -222.5t-184.5 -162.5t-223.5 -103t-240 -34.5q-183 0 -316 68q-69 -123 -69 -185q0 -22 14 -40l14 -19q0 -10 -18.5 -20.5t-28.5 -10.5q-49 0 -49 66q0 91 78 241q-105 73 -158 189t-53 256zM225 537 q0 -259 152 -402q132 231 362.5 546t405.5 517q-43 14 -78 19q-32 -37 -51 -37q-10 0 -10 8q0 18 18 33q-29 2 -84 2q-211 0 -422 -58q-150 -112 -221.5 -279t-71.5 -349zM432 92q119 -80 295 -80q80 0 163.5 22.5t163 65t149.5 108t123 145.5t83.5 183.5t30.5 217.5 q0 133 -60 242.5t-163 168.5q-218 -258 -440.5 -561.5t-344.5 -511.5zM584 1235q118 37 301 37q97 0 168 -8q18 44 18 69q0 49 -78 49q-98 0 -215 -43t-194 -104z" />
<glyph unicode="&#xd9;" horiz-adv-x="1323" d="M115 395q0 170 37 369t92 356q-13 3 -13 23q0 36 35 104.5t56 85.5q39 31 84 31q24 0 39.5 -10.5t15.5 -24.5q0 -10 -8 -18q-51 -46 -100 -176t-77 -257t-38 -223q-23 -203 -23 -286q0 -289 143 -289q149 0 416 358q125 170 203 358t78 324v45q0 76 37 128.5t116 52.5 q31 0 31 -21v-4q-64 -147 -114.5 -400t-72.5 -457.5t-22 -316.5q17 -23 17 -59q0 -104 -68 -104q-22 0 -35.5 12t-13.5 33q38 443 67 678q-81 -158 -168.5 -284.5t-161.5 -204t-145 -129t-122.5 -71.5t-90.5 -20q-100 0 -147 108.5t-47 288.5zM551 1686q0 20 12.5 37.5 t30.5 17.5q8 0 20 -6q113 -75 206 -149.5t93 -92.5q0 -6 -6 -6t-10 2q-312 156 -330 166q-16 8 -16 31z" />
<glyph unicode="&#xda;" horiz-adv-x="1323" d="M115 395q0 170 37 369t92 356q-13 3 -13 23q0 36 35 104.5t56 85.5q39 31 84 31q24 0 39.5 -10.5t15.5 -24.5q0 -10 -8 -18q-51 -46 -100 -176t-77 -257t-38 -223q-23 -203 -23 -286q0 -289 143 -289q149 0 416 358q125 170 203 358t78 324v45q0 76 37 128.5t116 52.5 q31 0 31 -21v-4q-64 -147 -114.5 -400t-72.5 -457.5t-22 -316.5q17 -23 17 -59q0 -104 -68 -104q-22 0 -35.5 12t-13.5 33q38 443 67 678q-81 -158 -168.5 -284.5t-161.5 -204t-145 -129t-122.5 -71.5t-90.5 -20q-100 0 -147 108.5t-47 288.5zM674 1493q0 18 93.5 92 t207.5 150q9 6 20 6q18 0 30.5 -17.5t12.5 -37.5q0 -21 -16 -31q-18 -10 -330 -166q-4 -2 -10 -2q-8 0 -8 6z" />
<glyph unicode="&#xdb;" horiz-adv-x="1323" d="M115 395q0 170 37 369t92 356q-13 3 -13 23q0 36 35 104.5t56 85.5q39 31 84 31q24 0 39.5 -10.5t15.5 -24.5q0 -10 -8 -18q-51 -46 -100 -176t-77 -257t-38 -223q-23 -203 -23 -286q0 -289 143 -289q149 0 416 358q125 170 203 358t78 324v45q0 76 37 128.5t116 52.5 q31 0 31 -21v-4q-64 -147 -114.5 -400t-72.5 -457.5t-22 -316.5q17 -23 17 -59q0 -104 -68 -104q-22 0 -35.5 12t-13.5 33q38 443 67 678q-81 -158 -168.5 -284.5t-161.5 -204t-145 -129t-122.5 -71.5t-90.5 -20q-100 0 -147 108.5t-47 288.5zM610 1436q0 7 8 18 q19 24 128 126t128 106q11 -4 71 -99t77 -127q2 -4 2 -14q0 -16 -10 -16q-2 0 -6 4q-26 23 -83 84.5t-77 91.5q-34 -31 -131 -105.5t-103 -74.5q-4 0 -4 6z" />
<glyph unicode="&#xdc;" horiz-adv-x="1323" d="M115 395q0 170 37 369t92 356q-13 3 -13 23q0 36 35 104.5t56 85.5q39 31 84 31q24 0 39.5 -10.5t15.5 -24.5q0 -10 -8 -18q-51 -46 -100 -176t-77 -257t-38 -223q-23 -203 -23 -286q0 -289 143 -289q149 0 416 358q125 170 203 358t78 324v45q0 76 37 128.5t116 52.5 q31 0 31 -21v-4q-64 -147 -114.5 -400t-72.5 -457.5t-22 -316.5q17 -23 17 -59q0 -104 -68 -104q-22 0 -35.5 12t-13.5 33q38 443 67 678q-81 -158 -168.5 -284.5t-161.5 -204t-145 -129t-122.5 -71.5t-90.5 -20q-100 0 -147 108.5t-47 288.5zM633 1599q0 37 34.5 72 t69.5 35q8 0 11 -6q0 -22 -12.5 -66t-12.5 -47q0 -13 -10 -22.5t-19 -13t-26 -7.5q-35 0 -35 55zM893 1599q0 36 35 71.5t69 35.5q10 0 13 -6q0 -22 -12.5 -66t-12.5 -47q0 -13 -10 -22.5t-19 -13t-26 -7.5q-37 0 -37 55z" />
<glyph unicode="&#xdd;" horiz-adv-x="1064" d="M61 1276q0 63 93 63q25 0 55.5 -8t30.5 -20q0 -13 -8 -20.5t-17 -11t-17 -17t-8 -37.5q0 -136 189 -592q26 22 75 66.5t126 122t144.5 154t123.5 161t70 143.5q10 43 26 64.5t49 21.5q47 0 47 -41q0 -19 -17 -51.5t-59 -88t-62 -81t-77 -94.5q-22 -27 -44.5 -52.5 t-48.5 -53.5t-43.5 -47t-48.5 -50l-44 -44t-49.5 -47.5t-45.5 -42.5t-50.5 -47t-47.5 -44q-20 -58 -41 -170t-26 -181q-4 -49 -7.5 -77t-14 -61.5t-27 -51t-45.5 -29.5t-70 -12q-35 0 -35 20q0 7 8 25t16.5 34t20 37t13.5 25q102 219 102 394q0 22 -2 30q-95 247 -219 631 q-15 44 -15 80zM459 1434q0 18 92 90t209 149q9 6 20 6q18 0 30.5 -16.5t12.5 -36.5q0 -21 -16 -31q-28 -16 -86.5 -45t-136 -67t-107.5 -53q-6 -3 -10 -3q-8 0 -8 7z" />
<glyph unicode="&#xde;" horiz-adv-x="610" d="M-131 -446q0 105 221 716q-10 23 -10 47q0 65 61 103q190 579 217 686q0 2 -30.5 6.5t-30.5 17.5q0 17 21 29t42.5 19t22.5 10q14 38 25 67t19.5 52.5t16 41t12.5 30t10 22.5t7 15t6.5 10.5t5.5 6.5l6.5 6.5l6.5 6.5q22 22 47 22q37 0 37 -41q0 -18 -13 -47l-77 -186 q125 -79 216 -256.5t91 -386.5q0 -189 -112.5 -307.5t-297.5 -118.5q-149 0 -231 68q-53 -104 -104.5 -292t-51.5 -239q0 -16 7 -38.5t7 -35.5q0 -30 -23 -68t-67 -38q-24 0 -40.5 18t-16.5 54zM193 254q73 -76 194 -76q76 0 134.5 32.5t92.5 88t51 122.5t17 142 q0 62 -8 111q-40 267 -209 413q-66 -149 -272 -833z" />
<glyph unicode="&#xdf;" horiz-adv-x="1249" d="M-289 -287q0 36 12 57t27 21q12 0 12 -16q0 -3 -1 -13.5t-1 -17.5q0 -60 40 -93.5t91 -33.5q52 -2 104.5 50.5t94.5 160.5q56 143 153 462.5t122 418.5h-134q-26 0 -26 12q0 9 14.5 20t28.5 11h131q20 75 67.5 229.5t67.5 196.5q41 88 119 135t176 47q167 0 254 -76 q88 -79 88 -154q0 -56 -48.5 -102t-117.5 -78t-137.5 -63.5t-117 -73t-48.5 -90.5q0 -44 35 -81t87.5 -61t114 -52t114 -54t87.5 -67.5t35 -92.5q0 -86 -73.5 -164.5t-188 -124.5t-234.5 -46q-84 0 -118.5 31.5t-34.5 76.5q0 66 63 66q5 0 7.5 -9t5.5 -24.5t10 -26.5 q20 -35 55 -47t94 -12q52 0 105 13.5t101 39.5t78 71.5t30 102.5q0 42 -25.5 78t-66 61.5t-89 50t-97.5 49t-89.5 51.5t-66 65t-25.5 83q0 69 58.5 127.5t199.5 104.5q88 29 151.5 77.5t63.5 110.5q0 64 -79 130.5t-181 66.5q-46 0 -80.5 -11.5t-65.5 -43.5t-54.5 -72.5 t-50.5 -116.5t-50 -155.5t-57 -208.5q-22 -82 -97.5 -349t-115.5 -393q-36 -112 -83 -192t-97.5 -121t-95.5 -58.5t-91 -17.5q-48 0 -82 13.5t-50 36t-22 43t-6 42.5z" />
<glyph unicode="&#xe0;" d="M12 68q0 69 35 184.5t84.5 224t110.5 187.5t108 79h6l23 17q17 20 57 20q32 0 86 -16t62 -16q7 0 21 16t32 16q51 0 51 -45q0 -17 -7.5 -40.5t-20 -52t-15.5 -36.5q-2 -5 -19.5 -13t-19.5 -13q-45 -125 -79.5 -270.5t-34.5 -178.5q0 -51 28 -51q29 0 71 35t72.5 69.5 t32.5 34.5q4 0 4 -8q0 -10 -6.5 -25.5t-13.5 -21.5q-2 -1 -19 -17t-26 -24t-29.5 -25.5t-34.5 -28t-34.5 -24.5t-36 -22t-32.5 -13.5t-30 -5.5q-43 0 -51 51q0 90 68 318q-273 -379 -394 -379q-27 0 -38 17.5t-11 56.5zM106 125q0 -35 21 -35q43 0 154 126t143 177 q50 81 93.5 176t43.5 127q0 13 -10 13h-6q-13 0 -43 4t-49 4q-29 0 -62 -8q-30 -8 -99 -118.5t-127.5 -250.5t-58.5 -215zM344 1149q0 20 12.5 37.5t30.5 17.5q9 0 21 -6q113 -75 206 -149.5t93 -92.5q0 -6 -7 -6q-6 0 -10 2q-312 156 -330 166q-16 8 -16 31z" />
<glyph unicode="&#xe1;" d="M12 68q0 69 35 184.5t84.5 224t110.5 187.5t108 79h6l23 17q17 20 57 20q32 0 86 -16t62 -16q7 0 21 16t32 16q51 0 51 -45q0 -17 -7.5 -40.5t-20 -52t-15.5 -36.5q-2 -5 -19.5 -13t-19.5 -13q-45 -125 -79.5 -270.5t-34.5 -178.5q0 -51 28 -51q29 0 71 35t72.5 69.5 t32.5 34.5q4 0 4 -8q0 -10 -6.5 -25.5t-13.5 -21.5q-2 -1 -19 -17t-26 -24t-29.5 -25.5t-34.5 -28t-34.5 -24.5t-36 -22t-32.5 -13.5t-30 -5.5q-43 0 -51 51q0 90 68 318q-273 -379 -394 -379q-27 0 -38 17.5t-11 56.5zM106 125q0 -35 21 -35q43 0 154 126t143 177 q50 81 93.5 176t43.5 127q0 13 -10 13h-6q-13 0 -43 4t-49 4q-29 0 -62 -8q-30 -8 -99 -118.5t-127.5 -250.5t-58.5 -215zM385 907q0 18 93.5 92t207.5 150q9 6 21 6q18 0 30.5 -17.5t12.5 -37.5q0 -21 -17 -31q-18 -10 -330 -166q-4 -2 -10 -2q-8 0 -8 6z" />
<glyph unicode="&#xe2;" d="M12 68q0 69 35 184.5t84.5 224t110.5 187.5t108 79h6l23 17q17 20 57 20q32 0 86 -16t62 -16q7 0 21 16t32 16q51 0 51 -45q0 -17 -7.5 -40.5t-20 -52t-15.5 -36.5q-2 -5 -19.5 -13t-19.5 -13q-45 -125 -79.5 -270.5t-34.5 -178.5q0 -51 28 -51q29 0 71 35t72.5 69.5 t32.5 34.5q4 0 4 -8q0 -10 -6.5 -25.5t-13.5 -21.5q-2 -1 -19 -17t-26 -24t-29.5 -25.5t-34.5 -28t-34.5 -24.5t-36 -22t-32.5 -13.5t-30 -5.5q-43 0 -51 51q0 90 68 318q-273 -379 -394 -379q-27 0 -38 17.5t-11 56.5zM106 125q0 -35 21 -35q43 0 154 126t143 177 q50 81 93.5 176t43.5 127q0 13 -10 13h-6q-13 0 -43 4t-49 4q-29 0 -62 -8q-30 -8 -99 -118.5t-127.5 -250.5t-58.5 -215zM387 1305q0 7 8 18q19 24 128 125.5t128 105.5q11 -4 71.5 -98.5t76.5 -126.5q2 -4 2 -14q0 -17 -10 -17q-2 0 -7 5q-26 22 -82.5 84t-76.5 92 q-34 -31 -131 -106t-103 -75q-4 0 -4 7z" />
<glyph unicode="&#xe3;" d="M12 68q0 69 35 184.5t84.5 224t110.5 187.5t108 79h6l23 17q17 20 57 20q32 0 86 -16t62 -16q7 0 21 16t32 16q51 0 51 -45q0 -17 -7.5 -40.5t-20 -52t-15.5 -36.5q-2 -5 -19.5 -13t-19.5 -13q-45 -125 -79.5 -270.5t-34.5 -178.5q0 -51 28 -51q29 0 71 35t72.5 69.5 t32.5 34.5q4 0 4 -8q0 -10 -6.5 -25.5t-13.5 -21.5q-2 -1 -19 -17t-26 -24t-29.5 -25.5t-34.5 -28t-34.5 -24.5t-36 -22t-32.5 -13.5t-30 -5.5q-43 0 -51 51q0 90 68 318q-273 -379 -394 -379q-27 0 -38 17.5t-11 56.5zM106 125q0 -35 21 -35q43 0 154 126t143 177 q50 81 93.5 176t43.5 127q0 13 -10 13h-6q-13 0 -43 4t-49 4q-29 0 -62 -8q-30 -8 -99 -118.5t-127.5 -250.5t-58.5 -215zM651 1073q0 13 34.5 43t53.5 41q35 21 74 21q34 0 98 -21.5t97 -21.5q49 0 86 43q12 0 12 -9q0 -39 -57 -70.5t-80 -31.5q-36 0 -102 27.5t-101 27.5 q-26 0 -48 -13t-37.5 -26.5t-25.5 -13.5q-4 0 -4 4z" />
<glyph unicode="&#xe4;" d="M12 68q0 69 35 184.5t84.5 224t110.5 187.5t108 79h6l23 17q17 20 57 20q32 0 86 -16t62 -16q7 0 21 16t32 16q51 0 51 -45q0 -17 -7.5 -40.5t-20 -52t-15.5 -36.5q-2 -5 -19.5 -13t-19.5 -13q-45 -125 -79.5 -270.5t-34.5 -178.5q0 -51 28 -51q29 0 71 35t72.5 69.5 t32.5 34.5q4 0 4 -8q0 -10 -6.5 -25.5t-13.5 -21.5q-2 -1 -19 -17t-26 -24t-29.5 -25.5t-34.5 -28t-34.5 -24.5t-36 -22t-32.5 -13.5t-30 -5.5q-43 0 -51 51q0 90 68 318q-273 -379 -394 -379q-27 0 -38 17.5t-11 56.5zM106 125q0 -35 21 -35q43 0 154 126t143 177 q50 81 93.5 176t43.5 127q0 13 -10 13h-6q-13 0 -43 4t-49 4q-29 0 -62 -8q-30 -8 -99 -118.5t-127.5 -250.5t-58.5 -215zM365 1020q0 37 34.5 71.5t69.5 34.5q7 0 10 -6q0 -22 -12 -65.5t-12 -46.5q0 -13 -10.5 -22.5t-19.5 -13t-26 -7.5q-34 0 -34 55zM625 1020 q0 36 35 71t69 35q9 0 12 -6q0 -22 -12 -65.5t-12 -46.5q0 -13 -10 -22.5t-19 -13t-26 -7.5q-37 0 -37 55z" />
<glyph unicode="&#xe5;" d="M12 68q0 69 35 184.5t84.5 224t110.5 187.5t108 79h6l23 17q17 20 57 20q32 0 86 -16t62 -16q7 0 21 16t32 16q51 0 51 -45q0 -17 -7.5 -40.5t-20 -52t-15.5 -36.5q-2 -5 -19.5 -13t-19.5 -13q-45 -125 -79.5 -270.5t-34.5 -178.5q0 -51 28 -51q29 0 71 35t72.5 69.5 t32.5 34.5q4 0 4 -8q0 -10 -6.5 -25.5t-13.5 -21.5q-2 -1 -19 -17t-26 -24t-29.5 -25.5t-34.5 -28t-34.5 -24.5t-36 -22t-32.5 -13.5t-30 -5.5q-43 0 -51 51q0 90 68 318q-273 -379 -394 -379q-27 0 -38 17.5t-11 56.5zM106 125q0 -35 21 -35q43 0 154 126t143 177 q50 81 93.5 176t43.5 127q0 13 -10 13h-6q-13 0 -43 4t-49 4q-29 0 -62 -8q-30 -8 -99 -118.5t-127.5 -250.5t-58.5 -215zM461 965q0 78 60 146.5t124 68.5q39 0 63.5 -30.5t24.5 -70.5q0 -73 -57.5 -132.5t-130.5 -59.5q-37 0 -60.5 21t-23.5 57zM508 983q0 -57 59 -57 q51 0 88 47t37 106q0 70 -53 70q-39 0 -85 -51.5t-46 -114.5z" />
<glyph unicode="&#xe6;" horiz-adv-x="962" d="M12 68q0 69 35 184.5t84.5 224t110.5 187.5t108 79h6l23 17q17 20 57 20q32 0 86 -16t62 -16q7 0 21 16t32 16q45 0 49 -35q57 17 111 17q33 0 58.5 -33t37.5 -92q12 -65 12 -102q0 -45 -31 -76.5t-79.5 -45.5t-87.5 -19t-74 -5q-21 0 -46.5 1t-27.5 1q-67 -170 -67 -270 q0 -82 61 -82q33 0 76 34t76.5 74.5t62.5 74.5t37 34q14 0 14 -16q0 -37 -54.5 -100t-124.5 -111.5t-110 -48.5q-22 0 -43 6t-43 20.5t-35.5 43t-13.5 67.5q0 78 58 254q-267 -377 -392 -377q-27 0 -38 17.5t-11 56.5zM106 125q0 -35 21 -35q43 0 154 126t143 177 q50 81 93.5 176t43.5 127q0 13 -10 13h-6q-13 0 -43 4t-49 4q-29 0 -62 -8q-30 -8 -99 -118.5t-127.5 -250.5t-58.5 -215zM578 449q4 0 32 -2.5t49 -2.5q83 0 120 19t40 76q0 52 -10.5 88.5t-23.5 50.5t-27 14q-29 0 -69.5 -51t-68 -102.5t-42.5 -89.5z" />
<glyph unicode="&#xe7;" horiz-adv-x="473" d="M-121 -551q0 16 24.5 21.5t59.5 8t70 10.5t59.5 37.5t24.5 80.5q0 25 -26.5 63.5t-53.5 80.5t-27 75q0 44 17.5 85.5t48.5 65.5q-74 23 -74 136q0 97 46.5 230.5t107.5 234.5t104 120q31 11 66 30.5t61 29.5t57 10q97 0 97 -96q0 -48 -19.5 -79.5t-42.5 -31.5 q-24 0 -24 37q0 14 8 46t8 46q0 33 -35 33q-25 0 -76.5 -33.5t-78.5 -60.5q-40 -42 -116.5 -232.5t-76.5 -292.5q0 -40 13.5 -56.5t45.5 -16.5q48 0 98 25.5t88.5 62.5t69.5 73.5t51 63t23 27.5q10 -3 10 -15q0 -21 -31 -67.5t-78 -96.5t-114.5 -89.5t-130.5 -43.5 q-49 -37 -49 -110q0 -19 18.5 -47t41 -53t41 -61.5t18.5 -70.5q0 -67 -53.5 -115t-120 -67.5t-131.5 -19.5q-7 0 -13 7t-6 15z" />
<glyph unicode="&#xe8;" horiz-adv-x="518" d="M41 117q0 23 6 53q15 77 38.5 151t25.5 91q-10 2 -20.5 10.5t-10.5 21.5q0 23 35 23h14q7 15 21.5 44.5t32 64.5t40.5 77q33 62 86.5 85.5t132.5 23.5q33 0 59 -33t38 -92q12 -65 12 -102q0 -45 -31 -76.5t-79.5 -45.5t-87.5 -19t-74 -5q-21 0 -46.5 1t-27.5 1 q-68 -172 -68 -270q0 -82 62 -82q33 0 76 34t76.5 74.5t62.5 74.5t37 34q14 0 14 -16q0 -37 -54.5 -100t-124.5 -111.5t-110 -48.5q-22 0 -43 6t-43 20.5t-35.5 43t-13.5 67.5zM223 449q4 0 32.5 -2.5t49.5 -2.5q83 0 120 19t40 76q0 52 -10.5 88.5t-24 50.5t-27.5 14 q-29 0 -69.5 -51t-68 -102.5t-42.5 -89.5zM227 1094q0 20 12.5 37.5t30.5 17.5q9 0 21 -6q113 -75 206 -149.5t93 -92.5q0 -6 -6 -6q-7 0 -11 2q-302 151 -329 166q-17 9 -17 31z" />
<glyph unicode="&#xe9;" horiz-adv-x="518" d="M41 117q0 23 6 53q15 77 38.5 151t25.5 91q-10 2 -20.5 10.5t-10.5 21.5q0 23 35 23h14q7 15 21.5 44.5t32 64.5t40.5 77q33 62 86.5 85.5t132.5 23.5q33 0 59 -33t38 -92q12 -65 12 -102q0 -45 -31 -76.5t-79.5 -45.5t-87.5 -19t-74 -5q-21 0 -46.5 1t-27.5 1 q-68 -172 -68 -270q0 -82 62 -82q33 0 76 34t76.5 74.5t62.5 74.5t37 34q14 0 14 -16q0 -37 -54.5 -100t-124.5 -111.5t-110 -48.5q-22 0 -43 6t-43 20.5t-35.5 43t-13.5 67.5zM223 449q4 0 32.5 -2.5t49.5 -2.5q83 0 120 19t40 76q0 52 -10.5 88.5t-24 50.5t-27.5 14 q-29 0 -69.5 -51t-68 -102.5t-42.5 -89.5zM330 887q0 18 93 91.5t208 149.5q11 7 20 7q18 0 30.5 -18t12.5 -38t-16 -30q-18 -10 -330 -166q-4 -2 -10 -2q-8 0 -8 6z" />
<glyph unicode="&#xea;" horiz-adv-x="518" d="M41 117q0 23 6 53q15 77 38.5 151t25.5 91q-10 2 -20.5 10.5t-10.5 21.5q0 23 35 23h14q7 15 21.5 44.5t32 64.5t40.5 77q33 62 86.5 85.5t132.5 23.5q33 0 59 -33t38 -92q12 -65 12 -102q0 -45 -31 -76.5t-79.5 -45.5t-87.5 -19t-74 -5q-21 0 -46.5 1t-27.5 1 q-68 -172 -68 -270q0 -82 62 -82q33 0 76 34t76.5 74.5t62.5 74.5t37 34q14 0 14 -16q0 -37 -54.5 -100t-124.5 -111.5t-110 -48.5q-22 0 -43 6t-43 20.5t-35.5 43t-13.5 67.5zM223 449q4 0 32.5 -2.5t49.5 -2.5q83 0 120 19t40 76q0 52 -10.5 88.5t-24 50.5t-27.5 14 q-29 0 -69.5 -51t-68 -102.5t-42.5 -89.5zM279 1180q0 7 8 18q19 24 128 126t128 106q11 -4 70.5 -98.5t76.5 -127.5q2 -4 2 -14q0 -16 -10 -16q-2 0 -6 4q-26 23 -83 84.5t-77 91.5q-34 -31 -130.5 -105.5t-102.5 -74.5q-4 0 -4 6z" />
<glyph unicode="&#xeb;" horiz-adv-x="518" d="M41 117q0 23 6 53q15 77 38.5 151t25.5 91q-10 2 -20.5 10.5t-10.5 21.5q0 23 35 23h14q7 15 21.5 44.5t32 64.5t40.5 77q33 62 86.5 85.5t132.5 23.5q33 0 59 -33t38 -92q12 -65 12 -102q0 -45 -31 -76.5t-79.5 -45.5t-87.5 -19t-74 -5q-21 0 -46.5 1t-27.5 1 q-68 -172 -68 -270q0 -82 62 -82q33 0 76 34t76.5 74.5t62.5 74.5t37 34q14 0 14 -16q0 -37 -54.5 -100t-124.5 -111.5t-110 -48.5q-22 0 -43 6t-43 20.5t-35.5 43t-13.5 67.5zM223 449q4 0 32.5 -2.5t49.5 -2.5q83 0 120 19t40 76q0 52 -10.5 88.5t-24 50.5t-27.5 14 q-29 0 -69.5 -51t-68 -102.5t-42.5 -89.5zM281 991q0 37 34.5 72t69.5 35q7 0 10 -6q0 -22 -12 -66t-12 -47q0 -13 -10.5 -22.5t-19.5 -13t-26 -7.5q-34 0 -34 55zM541 991q0 36 35 71.5t69 35.5q9 0 12 -6q0 -22 -12 -66t-12 -47q0 -13 -10 -22.5t-19 -13t-26 -7.5 q-37 0 -37 55z" />
<glyph unicode="&#xec;" horiz-adv-x="344" d="M37 25q0 19 8 43q22 64 45.5 131t36.5 104t26 75.5t19.5 58t12 39t7 30t1.5 20.5q0 8 -3.5 15t-3.5 12q0 6 7 27q44 128 79.5 171.5t102.5 43.5q28 0 31 -19q-3 -7 -27 -51.5t-41 -77t-45.5 -96t-50.5 -121.5t-47 -137.5t-43 -159.5q-2 -6 -2 -16q0 -25 20 -25 q12 0 66.5 31t70.5 31q14 0 17 -9q0 -25 -104 -91t-144 -66q-39 0 -39 37zM176 1174q0 20 12.5 37.5t30.5 17.5q9 0 21 -6q113 -75 206 -149.5t93 -92.5q0 -6 -7 -6q-6 0 -10 2q-302 151 -329 166q-17 9 -17 31z" />
<glyph unicode="&#xed;" horiz-adv-x="344" d="M37 25q0 19 8 43q22 64 45.5 131t36.5 104t26 75.5t19.5 58t12 39t7 30t1.5 20.5q0 8 -3.5 15t-3.5 12q0 6 7 27q44 128 79.5 171.5t102.5 43.5q28 0 31 -19q-3 -7 -27 -51.5t-41 -77t-45.5 -96t-50.5 -121.5t-47 -137.5t-43 -159.5q-2 -6 -2 -16q0 -25 20 -25 q12 0 66.5 31t70.5 31q14 0 17 -9q0 -25 -104 -91t-144 -66q-39 0 -39 37zM342 979q0 18 93.5 92t207.5 150q9 6 21 6q18 0 30.5 -18t12.5 -38t-17 -30q-18 -10 -330 -166q-4 -2 -10 -2q-8 0 -8 6z" />
<glyph unicode="&#xee;" horiz-adv-x="344" d="M37 25q0 19 8 43q22 64 45.5 131t36.5 104t26 75.5t19.5 58t12 39t7 30t1.5 20.5q0 8 -3.5 15t-3.5 12q0 6 7 27q44 128 79.5 171.5t102.5 43.5q28 0 31 -19q-3 -7 -27 -51.5t-41 -77t-45.5 -96t-50.5 -121.5t-47 -137.5t-43 -159.5q-2 -6 -2 -16q0 -25 20 -25 q12 0 66.5 31t70.5 31q14 0 17 -9q0 -25 -104 -91t-144 -66q-39 0 -39 37zM197 1022q0 7 8 18q19 24 128 126t128 106q11 -4 70.5 -98.5t76.5 -126.5q2 -4 2 -15q0 -16 -10 -16q-2 0 -6 4q-26 23 -83 84.5t-77 91.5q-34 -31 -130.5 -105.5t-102.5 -74.5q-4 0 -4 6z" />
<glyph unicode="&#xef;" horiz-adv-x="344" d="M37 25q0 19 8 43q22 64 45.5 131t36.5 104t26 75.5t19.5 58t12 39t7 30t1.5 20.5q0 8 -3.5 15t-3.5 12q0 6 7 27q44 128 79.5 171.5t102.5 43.5q28 0 31 -19q-3 -7 -27 -51.5t-41 -77t-45.5 -96t-50.5 -121.5t-47 -137.5t-43 -159.5q-2 -6 -2 -16q0 -25 20 -25 q12 0 66.5 31t70.5 31q14 0 17 -9q0 -25 -104 -91t-144 -66q-39 0 -39 37zM213 1083q0 37 34.5 72t69.5 35q8 0 11 -6q0 -22 -12.5 -66t-12.5 -47q0 -13 -10 -22.5t-19 -13t-26 -7.5q-35 0 -35 55zM473 1083q0 36 35.5 71.5t69.5 35.5q9 0 12 -6q0 -22 -12.5 -66t-12.5 -47 q0 -13 -10 -22.5t-19 -13t-26 -7.5q-37 0 -37 55z" />
<glyph unicode="&#xf0;" horiz-adv-x="634" d="M43 133q0 47 8 94q11 63 40 149.5t74 182t111.5 160.5t137.5 65q24 0 45 -6q-3 83 -119 291q-5 -3 -26 -14t-30.5 -16t-28.5 -14.5t-30 -14t-25.5 -10.5t-24.5 -8.5t-17 -2.5q-9 0 -15 6.5t-6 14.5q0 23 27 41q34 22 145 71q-23 36 -58.5 79.5t-57 70t-21.5 37.5 q0 21 15 38t36 17q32 0 79 -64t89 -141q181 78 199 78q8 0 8 -4q0 -13 -52 -48.5t-130 -76.5q57 -113 90 -249t33 -269q0 -141 -53 -284t-143.5 -238t-188.5 -95q-52 0 -81.5 40t-29.5 120zM135 123q0 -100 58 -100q36 0 84.5 43.5t93 114t75.5 172t31 204.5v37 q0 47 -10.5 71.5t-42.5 24.5h-14q-4 2 -15 2q-34 0 -77 -60.5t-78.5 -143t-62.5 -160.5t-34 -119q-8 -47 -8 -86z" />
<glyph unicode="&#xf1;" horiz-adv-x="667" d="M-6 -20q4 -5 76 202t104 307q8 24 8 37q0 8 -3 15t-3 12q0 9 6 27q46 132 79 173.5t101 41.5q28 0 31 -19q-166 -341 -200 -491q36 58 70.5 110.5t98 137.5t118 145t118.5 105.5t113 45.5q41 0 41 -26q0 -17 -15 -41q-105 -174 -194.5 -399t-89.5 -338q0 -37 16 -37 q6 0 40 20.5t40 20.5q12 0 12 -13q0 -26 -45.5 -56t-89.5 -30q-30 0 -44.5 20t-14.5 68q0 80 32.5 187.5t101 271t70.5 168.5q11 29 11 41q0 10 -7 10q-11 0 -45 -37q-87 -99 -251 -336t-168 -292q-2 -14 -39.5 -40t-61.5 -26q-13 0 -16 15zM358 1012q0 13 34.5 43t53.5 41 q33 20 74 20q34 0 98 -21.5t97 -21.5q49 0 86 43q12 0 12 -8q0 -39 -57 -70.5t-80 -31.5q-36 0 -102 27.5t-101 27.5q-26 0 -48 -13.5t-37.5 -26.5t-25.5 -13q-4 0 -4 4z" />
<glyph unicode="&#xf2;" horiz-adv-x="534" d="M43 133q0 47 8 94q9 53 36.5 137.5t70.5 182t105.5 166.5t125.5 69h14q0 28 17 49t45 21q20 -2 32.5 -39t18 -81t22 -81.5t44.5 -40.5q39 -6 39 -22q0 -18 -39 -37q-22 -10 -47 -10q0 -99 -25 -192t-65 -161.5t-89 -121t-99.5 -79t-94.5 -26.5q-55 0 -87 43t-32 129z M135 123q0 -100 58 -100q36 0 84.5 43.5t93 114t75.5 172t31 204.5q-19 10 -46 72.5t-36 62.5q-34 0 -77 -60.5t-78.5 -143t-62.5 -160.5t-34 -119q-8 -47 -8 -86zM248 1239q0 20 12.5 37.5t30.5 17.5q8 0 20 -6q114 -75 206.5 -149t92.5 -92q0 -7 -6 -7t-10 2 q-312 156 -330 166q-16 8 -16 31z" />
<glyph unicode="&#xf3;" horiz-adv-x="534" d="M43 133q0 47 8 94q9 53 36.5 137.5t70.5 182t105.5 166.5t125.5 69h14q0 28 17 49t45 21q20 -2 32.5 -39t18 -81t22 -81.5t44.5 -40.5q39 -6 39 -22q0 -18 -39 -37q-22 -10 -47 -10q0 -99 -25 -192t-65 -161.5t-89 -121t-99.5 -79t-94.5 -26.5q-55 0 -87 43t-32 129z M135 123q0 -100 58 -100q36 0 84.5 43.5t93 114t75.5 172t31 204.5q-19 10 -46 72.5t-36 62.5q-34 0 -77 -60.5t-78.5 -143t-62.5 -160.5t-34 -119q-8 -47 -8 -86zM373 1047q0 18 93 91.5t208 149.5q9 6 20 6q18 0 30.5 -17.5t12.5 -37.5q0 -21 -16 -31q-18 -10 -330 -166 q-4 -2 -10 -2q-8 0 -8 7z" />
<glyph unicode="&#xf4;" horiz-adv-x="534" d="M43 133q0 47 8 94q9 53 36.5 137.5t70.5 182t105.5 166.5t125.5 69h14q0 28 17 49t45 21q20 -2 32.5 -39t18 -81t22 -81.5t44.5 -40.5q39 -6 39 -22q0 -18 -39 -37q-22 -10 -47 -10q0 -99 -25 -192t-65 -161.5t-89 -121t-99.5 -79t-94.5 -26.5q-55 0 -87 43t-32 129z M135 123q0 -100 58 -100q36 0 84.5 43.5t93 114t75.5 172t31 204.5q-19 10 -46 72.5t-36 62.5q-34 0 -77 -60.5t-78.5 -143t-62.5 -160.5t-34 -119q-8 -47 -8 -86zM287 1026q0 7 8 18q19 24 128 126t128 106q11 -4 70.5 -98.5t76.5 -126.5q2 -4 2 -15q0 -16 -10 -16 q-2 0 -6 4q-26 23 -83 84.5t-77 91.5q-34 -31 -130.5 -105.5t-102.5 -74.5q-4 0 -4 6z" />
<glyph unicode="&#xf5;" horiz-adv-x="534" d="M43 133q0 47 8 94q9 53 36.5 137.5t70.5 182t105.5 166.5t125.5 69h14q0 28 17 49t45 21q20 -2 32.5 -39t18 -81t22 -81.5t44.5 -40.5q39 -6 39 -22q0 -18 -39 -37q-22 -10 -47 -10q0 -99 -25 -192t-65 -161.5t-89 -121t-99.5 -79t-94.5 -26.5q-55 0 -87 43t-32 129z M135 123q0 -100 58 -100q36 0 84.5 43.5t93 114t75.5 172t31 204.5q-19 10 -46 72.5t-36 62.5q-34 0 -77 -60.5t-78.5 -143t-62.5 -160.5t-34 -119q-8 -47 -8 -86zM246 1036q0 13 34.5 43t53.5 41q35 21 74 21q34 0 97.5 -21.5t96.5 -21.5q49 0 86 43q12 0 12 -8 q0 -39 -57.5 -71t-79.5 -32q-36 0 -102 27.5t-101 27.5q-26 0 -48 -13.5t-37 -26.5t-25 -13q-4 0 -4 4z" />
<glyph unicode="&#xf6;" horiz-adv-x="534" d="M43 133q0 47 8 94q9 53 36.5 137.5t70.5 182t105.5 166.5t125.5 69h14q0 28 17 49t45 21q20 -2 32.5 -39t18 -81t22 -81.5t44.5 -40.5q39 -6 39 -22q0 -18 -39 -37q-22 -10 -47 -10q0 -99 -25 -192t-65 -161.5t-89 -121t-99.5 -79t-94.5 -26.5q-55 0 -87 43t-32 129z M135 123q0 -100 58 -100q36 0 84.5 43.5t93 114t75.5 172t31 204.5q-19 10 -46 72.5t-36 62.5q-34 0 -77 -60.5t-78.5 -143t-62.5 -160.5t-34 -119q-8 -47 -8 -86zM301 1083q0 37 35 72t70 35q7 0 10 -6q0 -22 -12.5 -66t-12.5 -47q0 -13 -10 -22.5t-19 -13t-26 -7.5 q-35 0 -35 55zM561 1083q0 36 35.5 71.5t69.5 35.5q9 0 12 -6q0 -22 -12.5 -66t-12.5 -47q0 -13 -10 -22.5t-19 -13t-26 -7.5q-37 0 -37 55z" />
<glyph unicode="&#xf7;" horiz-adv-x="831" d="M39 481q0 40 31 47t173 5q98 -1 163 -1q35 0 97.5 -1t110.5 -1q115 0 197 7q0 -1 1 -3.5t1 -3.5q0 -23 -79 -42t-187 -33.5t-123 -18.5q-16 -4 -68 -4q-109 0 -213 12t-104 37zM291 287q0 59 78 59q29 0 57.5 -20t28.5 -50q0 -24 -26.5 -42.5t-51.5 -18.5 q-35 0 -60.5 21.5t-25.5 50.5zM385 696q0 34 24 47t54 13q29 0 57.5 -20t28.5 -50q0 -24 -26.5 -42.5t-51.5 -18.5q-35 0 -60.5 21t-25.5 50z" />
<glyph unicode="&#xf8;" horiz-adv-x="534" d="M43 131q0 47 8 96q9 53 36.5 137.5t70.5 182t105.5 166.5t125.5 69h14q0 28 17 49t45 21q25 -2 43 -80q99 154 113 154q10 0 20 -13q4 -8 4 -16q0 -12 -18.5 -43t-54.5 -83.5t-50 -74.5q8 -35 25 -56.5t33 -27t28.5 -11t12.5 -13.5q0 -16 -30.5 -31.5t-55.5 -15.5 q0 -123 -38 -235t-94.5 -185t-121.5 -116.5t-121 -43.5q-22 0 -45 10q-35 -81 -35 -118q0 -11 4 -20t8 -13.5t4 -5.5q0 -7 -9.5 -14t-14.5 -7q-27 0 -27 43q0 63 39 158q-41 41 -41 137zM135 109q96 197 291 530q-6 11 -10 26.5t-8 21t-13 5.5q-34 0 -77 -60.5t-78.5 -143 t-62.5 -160.5t-34 -119q-8 -41 -8 -80v-20zM150 45q14 -22 40 -22q37 0 86 43.5t94 113.5t76 172t31 205q-10 5 -24 29q-189 -310 -303 -541z" />
<glyph unicode="&#xf9;" horiz-adv-x="681" d="M14 18q0 27 23 88q6 15 37 82.5t55 123t45 117t21 89.5q0 10 -4.5 19t-4.5 16q0 2 4 22q35 131 66 173.5t102 42.5q29 0 35 -19q-1 -2 -35 -84t-64.5 -156.5t-66.5 -165.5t-58 -152.5t-22 -74.5q0 -8 7 -8q8 0 49 33q205 158 360 442q1 36 14 78.5t48.5 81.5t85.5 39 q21 0 24 -19q-6 -20 -45 -124.5t-63 -174.5q-36 -104 -78.5 -254t-42.5 -182q0 -6 4 -6q17 1 83 51.5t91 50.5q16 0 16 -10q0 -15 -45.5 -47.5t-105 -67.5t-66.5 -40q-15 -12 -42.5 -42t-50.5 -49.5t-42 -19.5q-10 0 -18 7t-8 16q0 14 32.5 44t42.5 52q12 29 63.5 211 t76.5 278q-36 -53 -94.5 -128t-134 -162t-149 -147t-116.5 -60q-29 0 -29 36zM354 1219q0 20 12.5 37.5t30.5 17.5q9 0 21 -6q113 -75 206 -149.5t93 -92.5q0 -6 -6 -6q-7 0 -11 2q-302 151 -329 166q-17 8 -17 31z" />
<glyph unicode="&#xfa;" horiz-adv-x="681" d="M14 18q0 27 23 88q6 15 37 82.5t55 123t45 117t21 89.5q0 10 -4.5 19t-4.5 16q0 2 4 22q35 131 66 173.5t102 42.5q29 0 35 -19q-1 -2 -35 -84t-64.5 -156.5t-66.5 -165.5t-58 -152.5t-22 -74.5q0 -8 7 -8q8 0 49 33q205 158 360 442q1 36 14 78.5t48.5 81.5t85.5 39 q21 0 24 -19q-6 -20 -45 -124.5t-63 -174.5q-36 -104 -78.5 -254t-42.5 -182q0 -6 4 -6q17 1 83 51.5t91 50.5q16 0 16 -10q0 -15 -45.5 -47.5t-105 -67.5t-66.5 -40q-15 -12 -42.5 -42t-50.5 -49.5t-42 -19.5q-10 0 -18 7t-8 16q0 14 32.5 44t42.5 52q12 29 63.5 211 t76.5 278q-36 -53 -94.5 -128t-134 -162t-149 -147t-116.5 -60q-29 0 -29 36zM453 1020q0 18 93.5 92t207.5 150q9 6 20 6q18 0 30.5 -18t12.5 -38t-16 -30q-18 -10 -330 -166q-4 -2 -10 -2q-8 0 -8 6z" />
<glyph unicode="&#xfb;" horiz-adv-x="681" d="M14 18q0 27 23 88q6 15 37 82.5t55 123t45 117t21 89.5q0 10 -4.5 19t-4.5 16q0 2 4 22q35 131 66 173.5t102 42.5q29 0 35 -19q-1 -2 -35 -84t-64.5 -156.5t-66.5 -165.5t-58 -152.5t-22 -74.5q0 -8 7 -8q8 0 49 33q205 158 360 442q1 36 14 78.5t48.5 81.5t85.5 39 q21 0 24 -19q-6 -20 -45 -124.5t-63 -174.5q-36 -104 -78.5 -254t-42.5 -182q0 -6 4 -6q17 1 83 51.5t91 50.5q16 0 16 -10q0 -15 -45.5 -47.5t-105 -67.5t-66.5 -40q-15 -12 -42.5 -42t-50.5 -49.5t-42 -19.5q-10 0 -18 7t-8 16q0 14 32.5 44t42.5 52q12 29 63.5 211 t76.5 278q-36 -53 -94.5 -128t-134 -162t-149 -147t-116.5 -60q-29 0 -29 36zM356 1026q0 6 9 18q19 24 128 126t128 106q11 -4 70.5 -98.5t76.5 -126.5q2 -4 2 -15q0 -16 -10 -16q-2 0 -6 4q-26 23 -83 84.5t-77 91.5q-34 -31 -131 -105.5t-103 -74.5q-4 0 -4 6z" />
<glyph unicode="&#xfc;" horiz-adv-x="681" d="M14 18q0 27 23 88q6 15 37 82.5t55 123t45 117t21 89.5q0 10 -4.5 19t-4.5 16q0 2 4 22q35 131 66 173.5t102 42.5q29 0 35 -19q-1 -2 -35 -84t-64.5 -156.5t-66.5 -165.5t-58 -152.5t-22 -74.5q0 -8 7 -8q8 0 49 33q205 158 360 442q1 36 14 78.5t48.5 81.5t85.5 39 q21 0 24 -19q-6 -20 -45 -124.5t-63 -174.5q-36 -104 -78.5 -254t-42.5 -182q0 -6 4 -6q17 1 83 51.5t91 50.5q16 0 16 -10q0 -15 -45.5 -47.5t-105 -67.5t-66.5 -40q-15 -12 -42.5 -42t-50.5 -49.5t-42 -19.5q-10 0 -18 7t-8 16q0 14 32.5 44t42.5 52q12 29 63.5 211 t76.5 278q-36 -53 -94.5 -128t-134 -162t-149 -147t-116.5 -60q-29 0 -29 36zM387 1083q0 37 35 72t70 35q7 0 10 -6q0 -22 -12.5 -66t-12.5 -47q0 -13 -10 -22.5t-19 -13t-26 -7.5q-35 0 -35 55zM647 1083q0 36 35.5 71.5t69.5 35.5q9 0 12 -6q0 -22 -12.5 -66t-12.5 -47 q0 -13 -10 -22.5t-19 -13t-26 -7.5q-37 0 -37 55z" />
<glyph unicode="&#xfd;" horiz-adv-x="649" d="M-178 -637q0 58 55.5 166t122 204t125 178.5t61.5 92.5q23 70 23 184q0 167 -31.5 294.5t-87.5 127.5q-7 0 -17.5 -1t-11.5 -1q-8 0 -8 10q0 18 45 50q6 4 35 45t43 41q44 0 77.5 -132t33.5 -294q0 -16 -1 -49t-1 -50q0 -32 16 -32q31 0 113 107.5t150.5 228.5t68.5 157 q0 12 -10 12q-4 0 -15 -4t-16 -4q-12 0 -17 11q0 26 59.5 59t96.5 33q10 0 14 -2q7 -11 7 -23q0 -57 -108 -222.5t-207 -293t-152 -188.5q0 10 -3 -2q-2 -5 -5 -23q-30 -135 -52 -135q-8 0 -21.5 5t-15.5 5q-276 -370 -276 -475q0 -19 8 -38.5t8 -25.5q0 -22 -24 -38.5 t-49 -16.5q-18 0 -25.5 9t-7.5 30zM397 967q0 18 93 91.5t208 149.5q9 6 21 6q18 0 30.5 -17.5t12.5 -37.5q0 -21 -17 -31q-9 -5 -329 -165q-4 -2 -10 -2q-9 0 -9 6z" />
<glyph unicode="&#xfe;" horiz-adv-x="448" d="M-139 -514q0 42 33.5 148.5t98 279t66.5 178.5q-6 15 -6 35q0 49 45 76q145 449 160 506q0 2 -22.5 5.5t-22.5 12.5q0 17 31.5 29.5t31.5 13.5q24 65 50 139.5t42.5 124t34.5 101.5t32 84t30 59t32 39t35 12q15 0 15 -16q0 -14 -12 -41q-5 -11 -91.5 -253.5t-87.5 -244.5 q94 -65 148 -186q61 -144 61 -295q0 -62 -13.5 -115t-43.5 -98.5t-84 -71.5t-129 -26q-120 0 -184 53q-24 -70 -73.5 -212t-70.5 -204q-2 -4 -2 -8q0 -6 7.5 -18t7.5 -25q0 -25 -31.5 -79t-63.5 -54q-24 0 -24 51zM135 80q71 -47 139 -47q55 0 96 20t64 54t34 74.5t11 86.5 q0 45 -10 107q-23 113 -67 206t-66 93q-5 0 -30.5 -78t-64.5 -201t-61 -186z" />
<glyph unicode="&#xff;" horiz-adv-x="649" d="M-178 -637q0 58 55.5 166t122 204t125 178.5t61.5 92.5q23 70 23 184q0 167 -31.5 294.5t-87.5 127.5q-7 0 -17.5 -1t-11.5 -1q-8 0 -8 10q0 18 45 50q6 4 35 45t43 41q44 0 77.5 -132t33.5 -294q0 -16 -1 -49t-1 -50q0 -32 16 -32q31 0 113 107.5t150.5 228.5t68.5 157 q0 12 -10 12q-4 0 -15 -4t-16 -4q-12 0 -17 11q0 26 59.5 59t96.5 33q10 0 14 -2q7 -11 7 -23q0 -57 -108 -222.5t-207 -293t-152 -188.5q0 10 -3 -2q-2 -5 -5 -23q-30 -135 -52 -135q-8 0 -21.5 5t-15.5 5q-276 -370 -276 -475q0 -19 8 -38.5t8 -25.5q0 -22 -24 -38.5 t-49 -16.5q-18 0 -25.5 9t-7.5 30zM313 1022q0 36 34.5 71t70.5 35q7 0 10 -6q0 -22 -12.5 -65.5t-12.5 -46.5q0 -13 -10 -22.5t-19 -13t-26 -7.5q-35 0 -35 55zM573 1022q0 36 35.5 71t69.5 35q9 0 12 -6q0 -22 -12 -65.5t-12 -46.5q0 -13 -10.5 -22.5t-19.5 -13t-26 -7.5 q-37 0 -37 55z" />
<glyph unicode="&#x152;" horiz-adv-x="2256" d="M127 508q0 167 68.5 329t203.5 287q-25 -11 -60.5 -29t-56 -28t-24.5 -10q-8 0 -13 5.5t-5 12.5q0 21 81 61t156 68q107 104 242 172t272 68q57 0 100.5 -18.5t43.5 -59.5q0 -42 -48 -109q189 -26 310 -157q11 84 28 149h-108q-45 3 -45 17q0 10 26.5 21t59.5 11h80 q12 68 40.5 93.5t84.5 25.5q30 0 30 -20q0 -8 -7.5 -25.5t-17.5 -39.5t-14 -32q7 0 36 -0.5t85.5 -1t132.5 -0.5q34 0 150 1t201 1q30 0 30 -30q0 -24 -21.5 -57t-41.5 -33q-8 0 -28 25.5t-42 27.5q-35 4 -174 4q-20 0 -51 -1t-45 -1q-10 0 -252 4q-31 -103 -64 -273 t-47 -288q463 0 586 6q12 0 12 -12q0 -15 -20.5 -34t-56.5 -24h-529q-24 -235 -24 -397q0 -89 10 -154q27 0 200 -1t332 -1q133 0 236 33h2q8 0 8 -20q0 -25 -16 -49.5t-45 -24.5q-44 0 -139.5 -1t-145.5 -1q-7 0 -101 -0.5t-164.5 0t-159.5 1t-139 3t-50 6.5q0 14 28.5 38 t52.5 28q0 4 -1 14t-1 16q0 8 5 95q-117 -114 -272.5 -175t-317.5 -61q-145 0 -259 43t-184.5 118t-106.5 172.5t-36 211.5zM225 537q0 -107 30 -200t89.5 -166.5t158 -116t224.5 -42.5q151 0 323 85t259 206q26 375 71 690q-48 92 -129.5 151.5t-183.5 72.5 q-32 -37 -51 -37q-10 0 -10 8q0 18 18 33q-29 2 -84 2q-211 0 -422 -58q-150 -112 -221.5 -279t-71.5 -349zM584 1235q118 37 301 37q97 0 168 -8q18 44 18 69q0 49 -78 49q-98 0 -215 -43t-194 -104z" />
<glyph unicode="&#x153;" horiz-adv-x="940" d="M41 131q0 38 10 96q9 53 36.5 137.5t70.5 182t105.5 166.5t125.5 69h14q0 18 8 30.5t19 12.5q30 0 63 -74.5t44 -154.5q41 96 97.5 131t151.5 35q33 0 59 -33t38 -92q12 -65 12 -102q0 -45 -31 -76.5t-79.5 -45.5t-87.5 -19t-74 -5q-21 0 -46.5 1t-27.5 1 q-68 -172 -68 -270q0 -82 62 -82q33 0 76 34t76.5 74.5t62.5 74.5t37 34q14 0 14 -16q0 -37 -54 -99.5t-124 -111.5t-111 -49q-48 0 -89.5 27.5t-45.5 92.5q-54 -66 -113 -102.5t-110 -36.5q-55 0 -88 43t-33 127zM135 123q0 -100 58 -100q36 0 84.5 43.5t93 114t75.5 172 t31 204.5q-19 10 -46 72.5t-36 62.5q-34 0 -77 -60.5t-78.5 -143t-62.5 -160.5t-34 -119q-8 -47 -8 -86zM567 449q4 0 32.5 -2.5t49.5 -2.5q83 0 120 19t40 76q0 52 -10.5 88.5t-23.5 50.5t-27 14q-29 0 -69.5 -51t-68.5 -103t-43 -89z" />
<glyph unicode="&#x178;" horiz-adv-x="1064" d="M61 1276q0 63 93 63q25 0 55.5 -8t30.5 -20q0 -4 -2.5 -8.5t-6 -8t-7 -6.5t-5.5 -4l-2 -2q-27 -6 -27 -57q0 -136 189 -592q26 22 75 66.5t126 122t144.5 154t123.5 161t70 143.5q10 43 26 64.5t49 21.5q47 0 47 -41q0 -19 -17 -51.5t-59 -88t-62 -81t-77 -94.5 q-22 -27 -44.5 -52.5t-48.5 -53.5t-43.5 -47t-48.5 -50l-44 -44t-49.5 -47.5t-45.5 -42.5t-50.5 -47t-47.5 -44q-20 -58 -41 -170t-26 -181q-4 -49 -7.5 -77t-14 -61.5t-27 -51t-45.5 -29.5t-70 -12q-35 0 -35 20q0 7 8 25t16.5 34t20 37t13.5 25q102 219 102 394 q0 22 -2 30q-95 247 -219 631q-15 44 -15 80zM410 1599q0 37 34.5 72t69.5 35q7 0 10 -6q0 -22 -12 -66t-12 -47q0 -13 -10.5 -22.5t-19.5 -13t-26 -7.5q-34 0 -34 55zM670 1599q0 36 35 71.5t69 35.5q9 0 12 -6q0 -22 -12 -66t-12 -47q0 -13 -10 -22.5t-19 -13t-26 -7.5 q-37 0 -37 55z" />
<glyph unicode="&#x2c6;" horiz-adv-x="757" d="M229 1026q0 6 9 18q19 24 128 126t128 106q11 -4 70.5 -98.5t76.5 -126.5q2 -4 2 -15q0 -16 -10 -16q-2 0 -6 4q-26 23 -83 84.5t-77 91.5q-34 -31 -131 -105.5t-103 -74.5q-4 0 -4 6z" />
<glyph unicode="&#x2dc;" horiz-adv-x="557" d="M362 1012q0 13 35 43t54 41q33 20 73 20q34 0 98 -21.5t97 -21.5q49 0 86 43q12 0 12 -8q0 -39 -57 -70.5t-80 -31.5q-36 0 -102 27.5t-101 27.5q-26 0 -48 -13.5t-37 -26.5t-25 -13q-5 0 -5 4z" />
<glyph unicode="&#x2000;" horiz-adv-x="870" />
<glyph unicode="&#x2001;" horiz-adv-x="1741" />
<glyph unicode="&#x2002;" horiz-adv-x="870" />
<glyph unicode="&#x2003;" horiz-adv-x="1741" />
<glyph unicode="&#x2004;" horiz-adv-x="580" />
<glyph unicode="&#x2005;" horiz-adv-x="435" />
<glyph unicode="&#x2006;" horiz-adv-x="290" />
<glyph unicode="&#x2007;" horiz-adv-x="290" />
<glyph unicode="&#x2008;" horiz-adv-x="217" />
<glyph unicode="&#x2009;" horiz-adv-x="348" />
<glyph unicode="&#x200a;" horiz-adv-x="96" />
<glyph unicode="&#x2010;" horiz-adv-x="591" d="M47 274q0 13 5.5 24.5t14.5 19t20 14t21.5 10.5t19.5 7t14 4l5 1q15 0 15 -10q0 -12 -10 -22q119 -9 172 -9q40 0 65 2q74 2 105 4q36 0 36 -12q0 -21 -138.5 -40t-254.5 -19q-7 0 -21 1t-20 1q-3 0 -9 -1t-9 -1q-13 0 -22 7t-9 19z" />
<glyph unicode="&#x2011;" horiz-adv-x="591" d="M47 274q0 13 5.5 24.5t14.5 19t20 14t21.5 10.5t19.5 7t14 4l5 1q15 0 15 -10q0 -12 -10 -22q119 -9 172 -9q40 0 65 2q74 2 105 4q36 0 36 -12q0 -21 -138.5 -40t-254.5 -19q-7 0 -21 1t-20 1q-3 0 -9 -1t-9 -1q-13 0 -22 7t-9 19z" />
<glyph unicode="&#x2012;" horiz-adv-x="591" d="M47 274q0 13 5.5 24.5t14.5 19t20 14t21.5 10.5t19.5 7t14 4l5 1q15 0 15 -10q0 -12 -10 -22q119 -9 172 -9q40 0 65 2q74 2 105 4q36 0 36 -12q0 -21 -138.5 -40t-254.5 -19q-7 0 -21 1t-20 1q-3 0 -9 -1t-9 -1q-13 0 -22 7t-9 19z" />
<glyph unicode="&#x2013;" horiz-adv-x="813" d="M51 305q0 14 8.5 26.5t20.5 12.5h162q300 0 456 -8q3 0 29.5 -1t37 -1.5t35 -2t38 -4t29.5 -6.5t26 -10q10 -7 10 -10q0 -18 -76 -18h-751q-25 0 -25 22z" />
<glyph unicode="&#x2014;" horiz-adv-x="1241" d="M51 305q0 14 8.5 26.5t20.5 12.5h162q349 0 637.5 -9.5t316.5 -23.5q10 -7 10 -10q0 -18 -76 -18h-1054q-25 0 -25 22z" />
<glyph unicode="&#x2018;" horiz-adv-x="452" d="M86 909q0 16 9 31t11 21q25 81 73 153t96 115.5t89 68.5t60 25q10 0 10 -10h-2q-69 -69 -139 -163t-70 -142q0 -10 14.5 -33t14.5 -39q0 -42 -31 -64l-4 -2h2q-51 -47 -88 -47q-14 0 -24 12t-14 29.5t-5.5 28t-1.5 16.5z" />
<glyph unicode="&#x2019;" horiz-adv-x="428" d="M281 682v4q67 67 136.5 161t69.5 142q0 15 -8 23l-2 2q-18 18 -18 45q0 39 33 65l4 2q51 45 86 45q20 0 28 -16q15 -49 15 -68q0 -16 -9.5 -30.5t-11.5 -20.5l2 -2q-27 -80 -74.5 -152t-95.5 -115t-88 -68t-59 -25q-8 0 -8 8z" />
<glyph unicode="&#x201a;" horiz-adv-x="522" d="M139 0v4q67 67 137 161t70 142q0 15 -8 23l-2 2q-19 19 -19 41q0 40 41.5 77t79.5 37q20 0 31 -14q12 -37 12 -67q0 -16 -4 -28.5t-10 -24t-8 -17.5q-25 -71 -72.5 -138.5t-95 -110.5t-87.5 -69t-57 -26q-8 0 -8 8z" />
<glyph unicode="&#x201c;" horiz-adv-x="563" d="M86 909q0 16 9 31t11 21q25 81 73 153t96 115.5t89 68.5t60 25q10 0 10 -10h-2q-69 -69 -139 -163t-70 -142q0 -10 14.5 -33t14.5 -39q0 -42 -31 -64l-4 -2h2q-51 -47 -88 -47q-14 0 -24 12t-14 29.5t-5.5 28t-1.5 16.5zM356 928q0 16 9.5 30t11.5 19q26 81 73.5 153 t95.5 115.5t87.5 68.5t58.5 25q10 0 10 -8v-2q-68 -68 -138 -162.5t-70 -142.5q0 -10 14 -33t14 -39q0 -42 -30 -63l-5 -2v2q-51 -47 -88 -47q-13 0 -22.5 12t-13.5 29t-5.5 28t-1.5 17z" />
<glyph unicode="&#x201d;" horiz-adv-x="831" d="M182 821h2q67 67 137 161t70 142q0 17 -8 25l-2 2q-19 19 -19 45q0 40 33 66l2 2v-2q51 47 88 47q21 0 29 -17q14 -46 14 -67q0 -16 -9 -30.5t-11 -20.5l2 -3q-27 -80 -74.5 -152t-95.5 -115t-88 -68t-59 -25q-11 0 -11 10zM451 836v2l2 2q66 66 135 159.5t69 141.5 q0 16 -8 24v2q-18 18 -18 45q0 41 31 66l4 2q51 45 86 45q20 0 28 -16q15 -49 15 -68q0 -15 -8.5 -29t-10.5 -22v-2q-27 -80 -74.5 -152t-95.5 -115.5t-88 -68.5t-59 -25q-8 0 -8 9z" />
<glyph unicode="&#x201e;" horiz-adv-x="915" d="M139 0v4q67 67 137 161t70 142q0 15 -8 23l-2 2q-19 19 -19 41q0 40 41.5 77t79.5 37q20 0 31 -14q12 -37 12 -67q0 -16 -4 -28.5t-10 -24t-8 -17.5q-25 -71 -72.5 -138.5t-95 -110.5t-87.5 -69t-57 -26q-8 0 -8 8zM481 0v4q67 67 137 161t70 142q0 15 -8 23l-2 2 q-19 19 -19 41q0 40 41.5 77t79.5 37q20 0 31 -14q12 -37 12 -67q0 -16 -4 -28.5t-10 -24t-8 -17.5q-25 -71 -72.5 -138.5t-95 -110.5t-87.5 -69t-57 -26q-8 0 -8 8z" />
<glyph unicode="&#x2022;" horiz-adv-x="1099" d="M111 483q0 184 129.5 314.5t312.5 130.5q184 0 314 -130t130 -313q0 -184 -129.5 -314t-312.5 -130q-184 0 -314 129.5t-130 312.5z" />
<glyph unicode="&#x2026;" horiz-adv-x="1402" d="M231 53q0 35 48 70t75 35q4 0 8 -4q-24 -118 -33 -138q-23 -41 -63 -43q-35 0 -35 80zM657 53q0 35 48 70t75 35q4 0 8 -4q-24 -118 -33 -138q-23 -41 -63 -43q-35 0 -35 80zM1083 49q0 34 48 69.5t73 35.5q8 0 8 -4q-25 -121 -37 -145q-17 -36 -57 -36q-35 0 -35 80z " />
<glyph unicode="&#x202f;" horiz-adv-x="348" />
<glyph unicode="&#x2039;" horiz-adv-x="663" d="M29 530q2 54 16 60q473 370 559 452q2 2 6 2q6 0 6 -18q0 -27 -9.5 -65.5t-18.5 -45.5q-382 -275 -471 -364q36 -67 108 -173.5t124 -181t52 -83.5q0 -31 -6 -59.5t-13 -43.5t-11 -16q4 5 -35 67.5t-95 147t-71 108.5q-25 37 -60.5 89.5t-55 82t-25.5 41.5z" />
<glyph unicode="&#x203a;" horiz-adv-x="759" d="M131 0q0 25 10 64.5t19 46.5q382 275 471 364q-36 67 -109 173t-125.5 180t-52.5 83q0 31 6 60t12.5 44t10.5 17q-3 -5 33.5 -63t102.5 -156.5t69 -103.5q27 -43 60 -91.5t54 -79.5t27 -42q-3 -54 -17 -60q-473 -370 -559 -452q-4 -4 -6 -4q-6 0 -6 20z" />
<glyph unicode="&#x205f;" horiz-adv-x="435" />
<glyph unicode="&#x20ac;" horiz-adv-x="1400" d="M25 465q0 13 8 25t18 12h31q22 0 68.5 1t64.5 1h47v53q0 103 21 205h-148q-24 0 -24 22q0 13 8 25t18 12h31q21 0 67 1t64 1q66 233 237 379t416 146q375 0 375 -164q0 -51 -8 -51l-4 4q-14 22 -37.5 44.5t-65.5 51t-109 46t-147 17.5q-201 0 -346 -132.5t-207 -340.5 q367 -5 427 -9q133 -8 133 -34q0 -18 -76 -18h-500q-22 -104 -22 -227v-33q54 -1 127 -2.5t121 -2.5t59 -1q152 0 194 -25q11 -7 11 -10q0 -19 -76 -19h-432q23 -193 134.5 -310.5t307.5 -117.5q83 0 159 20t128.5 49t98 66.5t70 66t40.5 54.5q5 11 12 11q6 0 6 -21 q0 -65 -38 -117.5t-95 -84t-127.5 -53t-131.5 -30t-112 -8.5q-242 0 -383.5 125t-169.5 350h-219q-24 0 -24 23z" />
<glyph unicode="&#x2122;" horiz-adv-x="1343" d="M55 1255q16 26 247.5 44t342.5 18q45 0 45 -17q0 -20 -70 -30t-147.5 -20.5t-89.5 -32.5q-31 -57 -64.5 -161t-55.5 -187t-53.5 -146.5t-64.5 -63.5q-13 0 -24.5 6.5t-11.5 20.5q0 21 36 112t86.5 208t55.5 129q24 72 24 86q0 18 -57 18q-25 0 -74.5 -5t-73.5 -5 q-43 0 -51 26zM520 686q-1 8 37.5 103.5t82 202.5t50.5 132q3 10 6 59t14.5 81t39.5 32q15 0 25 -47.5t19 -115t21.5 -135t40.5 -115t68 -47.5q35 0 94.5 69t110 152t94 152t51.5 69q13 0 18.5 -19t5.5 -36q0 -20 -12 -73.5t-14 -72.5q-2 -17 -6.5 -102.5t-10.5 -159 t-12 -84.5q-9 -14 -31.5 -24.5t-40.5 -10.5q-22 0 -22 19q0 12 2 16q16 62 36 177.5t30 160.5q-28 -36 -61 -75t-80.5 -88.5t-94 -81t-78.5 -31.5q-105 0 -179 267l-1.5 3t-1 3t-0.5 3q-17 -36 -37.5 -111.5t-35.5 -134t-42.5 -105t-62.5 -46.5q-23 0 -23 14z" />
<glyph unicode="&#x25fc;" horiz-adv-x="788" d="M0 0v788h788v-788h-788z" />
<glyph unicode="&#xfb01;" horiz-adv-x="823" d="M-369 -260q0 56 17.5 106t32.5 50q7 0 10 -13q-4 -40 -4 -57q0 -94 36.5 -151.5t90.5 -57.5q50 0 101 52.5t93 158.5q57 144 153 453.5t120 404.5h-134q-49 0 -49 19q0 13 26 30t42 17h131q11 39 57 180.5t64 191.5q43 119 121 174.5t204 55.5q45 0 82.5 -15t61 -38.5 t39.5 -54t23 -60t7 -58.5q0 -70 -35 -101.5t-73 -31.5q-15 0 -27 10t-12 31q0 31 31.5 88t31.5 60q0 35 -50 81t-101 46q-39 0 -71.5 -13.5t-52 -30.5t-39 -48.5t-28 -50t-22.5 -52.5q-38 -99 -119 -366q15 0 51 -2.5t56 -2.5q27 0 70.5 9.5t47.5 9.5q9 0 9 -4 q0 -66 -250 -66q-7 -20 -47.5 -159t-91.5 -311.5t-78 -256.5q-29 -90 -66 -160.5t-74 -113t-78.5 -70t-77 -37.5t-71.5 -10q-51 0 -85 15t-48.5 42.5t-19.5 51.5t-5 55zM506 25q0 19 8 43q22 64 45.5 131t36.5 104t26 75.5t19.5 58t12 39t7 30t1.5 20.5q0 8 -3.5 15t-3.5 12 q0 6 7 27q44 128 79.5 171.5t102.5 43.5q27 0 30 -19q-3 -6 -27 -51t-40.5 -77.5t-45.5 -96t-50.5 -121t-46.5 -137.5t-43 -160q-3 -9 -3 -16q0 -25 21 -25q12 0 66.5 31t70.5 31q14 0 17 -9q0 -25 -104 -91t-144 -66q-39 0 -39 37z" />
<glyph unicode="&#xfb02;" horiz-adv-x="872" d="M-369 -260q0 56 17.5 106t32.5 50q7 0 10 -13q-4 -40 -4 -57q0 -94 36.5 -151.5t90.5 -57.5q50 0 101 52.5t93 158.5q57 144 153 453.5t120 404.5h-134q-49 0 -49 19q0 13 26 30t42 17h131q20 75 67.5 229.5t67.5 196.5q33 72 65 108.5t79.5 52t128.5 15.5 q82 0 176 -14.5t147 -34.5q29 -12 29 -27q0 -10 -15 -25q-110 -234 -222 -556t-167 -564q-2 -6 -2 -16q0 -25 21 -25q13 0 66.5 31t68.5 31q12 0 18 -9q0 -25 -102.5 -91t-144.5 -66q-39 0 -39 37q0 22 8 43q211 591 371 1167q-26 31 -91.5 53.5t-150.5 22.5 q-41 0 -79.5 -28.5t-61.5 -86.5q-96 -250 -146 -446q15 0 51 -2.5t56 -2.5q27 0 70.5 9.5t47.5 9.5q9 0 9 -4q0 -66 -250 -66q-7 -20 -47.5 -159t-91.5 -311.5t-78 -256.5q-29 -90 -66 -160.5t-74 -113t-78.5 -70t-77 -37.5t-71.5 -10q-51 0 -85 15t-48.5 42.5t-19.5 51.5 t-5 55z" />
</font>
</defs>
</svg>
