<?xml version="1.0" standalone="no"?>
<!DOCTYPE svg PUBLIC "-//W3C//DTD SVG 1.1//EN" "http://www.w3.org/Graphics/SVG/1.1/DTD/svg11.dtd" >
<svg xmlns="http://www.w3.org/2000/svg">
<metadata></metadata>
<defs>
<font id="lucida_handwritingitalic" horiz-adv-x="1382" >
<font-face units-per-em="2048" ascent="1638" descent="-410" />
<missing-glyph horiz-adv-x="691" />
<glyph horiz-adv-x="0" />
<glyph horiz-adv-x="682" />
<glyph unicode=" "  horiz-adv-x="691" />
<glyph unicode="&#x09;" horiz-adv-x="691" />
<glyph unicode="&#xa0;" horiz-adv-x="691" />
<glyph unicode="!" horiz-adv-x="786" d="M463 240l72 14q72 14 105 14q87 0 87 -91q0 -36 -10 -87l-13 -68l-46 -8q-98 -18 -117 -18q-71 0 -71 74q0 20 4 39l5 26q4 17 4 36q0 41 -20 69zM560 468q0 45 18 132l20 101q73 364 73 673q0 31 -8 70q89 36 118 36q99 0 99 -106q0 -94 -79 -425q-36 -151 -55 -248 l-14 -69q-15 -75 -15 -143q0 -44 14 -86q-15 -3 -53 -11q-15 -3 -33 -3q-85 0 -85 79z" />
<glyph unicode="&#x22;" horiz-adv-x="831" d="M403 1720h24l29 1q157 0 157 -87q0 -27 -13 -130l-10 -87q-13 -99 -13 -141q0 -24 13 -48l-32 -1q-59 0 -80 26t-21 100l-2 56q0 221 -52 311zM753 1720h24l28 1q158 0 158 -87q0 -26 -13 -130l-11 -87q-13 -109 -13 -134q0 -30 13 -55h-31q-60 0 -80.5 25.5t-20.5 99.5 l-2 56q0 222 -52 311z" />
<glyph unicode="#" d="M172 378q25 117 73 154t172 37l77 -1h31l156 333h-29q-211 0 -324 -60q11 32 17 48q30 83 78 106t187 23h131l7 17q109 260 109 383q0 41 -10 88q36 12 82 12q77 0 77 -97q0 -111 -113 -364l-17 -39h249l20 39q6 12 32 75q64 152 120.5 201t166.5 49q22 0 47 -6 q-97 -73 -239 -358h23q121 0 224 46q-12 -93 -71.5 -128t-205.5 -35h-27l-72 -162q-8 -18 -73 -171h28q182 0 285 90q-7 -114 -83.5 -164t-245.5 -50h-35q-62 -198 -62 -343q0 -54 19 -97q-61 -41 -104 -41q-74 0 -74 128q0 117 88 353h-282l-16 -30q-93 -168 -93 -281 q0 -23 8 -57q-45 -14 -88 -14q-73 0 -73 60q0 32 40 139.5t72 157.5l15 25h-31q-150 0 -266 -66zM662 568h270q24 59 78 179q11 24 65 154h-257z" />
<glyph unicode="$" d="M267 255q0 73 117 176q60 -277 331 -311l110 553l-81 60q-227 164 -227 319q0 154 120.5 264t336.5 154q6 54 6 120q0 40 -5 87q13 2 20 3q30 4 38 4q71 0 71 -77q0 -22 -14 -99q-3 -13 -8 -38q269 0 269 -129q0 -53 -54 -132q-72 134 -235 159l-108 -545l60 -41 q255 -170 255 -322q0 -346 -478 -452q-21 -128 -21 -208q0 -22 3 -70q-113 10 -113 80q0 37 24 152l7 38q-175 0 -299.5 74.5t-124.5 180.5zM701 1100q0 -93 166 -216l97 485q-121 -23 -192 -95.5t-71 -173.5zM814 121q281 57 281 268q0 83 -184 222z" />
<glyph unicode="%" horiz-adv-x="1703" d="M313 1002q0 129 82.5 245t173.5 116q47 0 75 -52q-84 -34 -136.5 -117.5t-52.5 -184.5q0 -76 48.5 -126t120.5 -50q98 0 161 89t63 227q0 30 -8 71q-146 59 -146 124q0 53 85 129q93 -153 338 -153q280 0 471 153l22 18q56 45 82 45q38 0 75 -53q-247 -209 -742 -810 q-301 -365 -426 -556t-145 -317q-112 54 -112 145q0 124 420 606q489 561 663 733q-174 -87 -344 -87q-32 0 -92 6q2 -17 2 -25q0 -187 -112.5 -315.5t-276.5 -128.5q-125 0 -207 76t-82 192zM1012 289q0 156 98.5 258.5t270.5 124.5q40 50 89 50q75 0 142 -99t67 -210 q0 -167 -116 -290t-275 -123q-120 0 -198 81.5t-78 207.5zM1154 298q0 -193 163 -193q91 0 156 76.5t65 185.5q0 134 -100 221q-26 3 -40 3q-95 0 -169.5 -89.5t-74.5 -203.5z" />
<glyph unicode="&#x26;" horiz-adv-x="1769" d="M190 369q0 366 477 523q-160 79 -160 258q0 158 143 263t359 105q132 0 221 -42.5t89 -104.5q0 -51 -61 -107q-84 155 -276 155q-127 0 -209 -68t-82 -173q0 -121 133 -222q88 19 152 19q59 0 122 -19q-57 -160 -201 -160q-60 0 -129 31q-171 -62 -274.5 -184.5 t-103.5 -262.5q0 -127 105.5 -207t272.5 -80q201 0 405 150t204 298q0 79 -84 115l-27 11q-47 21 -47 60q0 46 40 125q126 -56 374 -56q131 0 263 31q-37 -109 -93 -149.5t-174 -40.5q-22 0 -72 4q-121 -346 -121 -557q0 -161 57 -248q-68 -64 -150 -64q-65 0 -65 103 q0 118 52 383q-277 -295 -635 -295q-230 0 -367.5 110.5t-137.5 295.5z" />
<glyph unicode="'" horiz-adv-x="532" d="M359 1680q77 41 164 41q111 0 111 -71q0 -19 -18 -105l-13 -65q-36 -173 -36 -223q0 -38 23 -67q-34 -12 -58 -12q-76 0 -85 127l-5 78q-16 233 -83 297z" />
<glyph unicode="(" horiz-adv-x="1329" d="M443 435q0 515 418 948q137 141 312 255t254 114q50 0 80 -72q-369 -139 -618 -500t-249 -759q0 -250 134.5 -419t347.5 -186q-109 -112 -223 -112q-181 0 -318.5 220.5t-137.5 510.5z" />
<glyph unicode=")" horiz-adv-x="1095" d="M97 -224q369 138 618 499.5t249 758.5q0 251 -134.5 420t-347.5 186q108 112 223 112q181 0 318.5 -220.5t137.5 -511.5q0 -514 -418 -947q-136 -140 -311.5 -254.5t-254.5 -114.5q-50 0 -80 72z" />
<glyph unicode="*" horiz-adv-x="993" d="M403 1093q0 51 261 192q-232 119 -232 201q0 57 64 96q59 -112 211 -230l8 152q0 125 40.5 170.5t158.5 52.5q-74 -171 -122 -375q201 128 269 128q61 0 71 -128q-26 17 -53 17q-101 0 -280 -104q116 -69 197.5 -149.5t81.5 -126.5q0 -49 -100 -62q-53 132 -214 285 q-7 -72 -7 -150q0 -126 26 -227q-148 0 -148 98q0 69 41 267q-161 -119 -195 -207q-78 46 -78 100z" />
<glyph unicode="+" d="M239 456q34 155 87 185.5t287 30.5h136l21 107q23 116 23 212q0 89 -59 141q35 4 51 4q170 0 170 -126q0 -50 -39 -242l-19 -96h95q297 0 388 66q-23 -147 -85.5 -180.5t-316.5 -33.5h-111l-12 -61q-31 -159 -31 -258q0 -75 37 -135q-14 -2 -21 -4q-55 -10 -82 -10 q-109 0 -109 92q0 35 23 143q17 83 22 107l25 126h-113q-239 0 -367 -68z" />
<glyph unicode="," horiz-adv-x="714" d="M193 -209q33 -7 55 -7q71 0 121 60.5t50 145.5q0 125 -124 210q105 72 189 72q139 0 139 -161q0 -154 -110.5 -290t-235.5 -136q-70 0 -84 106z" />
<glyph unicode="-" horiz-adv-x="985" d="M498 519q57 176 183 176q24 0 50 -3l109 -12q32 -3 62 -3q80 0 115 44q-30 -195 -140 -195q-25 0 -62 4l-74 9q-78 10 -121 10q-62 0 -122 -30z" />
<glyph unicode="." horiz-adv-x="673" d="M319 240l72 14q72 14 105 14q87 0 87 -91q0 -36 -10 -87l-13 -68l-46 -8q-98 -18 -117 -18q-71 0 -71 74q0 20 4 39l5 26q4 17 4 36q0 41 -20 69z" />
<glyph unicode="/" horiz-adv-x="934" d="M153 -153q0 151 360 861l97 190q286 563 399.5 708.5t265.5 145.5q33 0 72 -9q-300 -248 -703 -1080l-43 -90q-293 -607 -293 -823q0 -19 3 -46q-158 55 -158 143z" />
<glyph unicode="0" d="M222 507q0 409 231.5 709.5t547.5 300.5q206 0 323 -147t117 -405q0 -409 -234 -705.5t-556 -296.5q-196 0 -312.5 147.5t-116.5 396.5zM439 562q0 -488 294 -488q194 0 342 254.5t148 587.5q0 488 -300 488q-194 0 -339 -252.5t-145 -589.5z" />
<glyph unicode="1" d="M316 120q52 -26 104 -26q108 0 218 26l221 1114q-165 -81 -261 -81q-144 0 -144 186v28q60 -53 139 -53q131 0 445 171q13 7 72 34l-266 -1367q109 15 167 15q132 0 176 -40.5t44 -161.5q-53 35 -143 35q-99 0 -240 -17l-145 -18q-67 -9 -184 -27q-38 -6 -75 -6 q-110 0 -128 188z" />
<glyph unicode="2" d="M236 75q0 28 7 81q339 222 583 522.5t244 496.5q0 194 -214 194q-243 0 -427 -277q-12 58 -12 94q0 120 163 225.5t349 105.5q162 0 261 -77.5t99 -204.5q0 -371 -814 -1047q340 46 564 46q166 0 217 -47t64 -214q-153 70 -415 70q-214 0 -426 -33l-61 -9 q-86 -13 -110 -13q-72 0 -72 87z" />
<glyph unicode="3" d="M301 166q0 23 5 71q149 -151 380 -151q162 0 272 96.5t110 238.5q0 109 -65 169t-225 99q-61 -17 -113 -17q-86 0 -151 44q63 148 183 148q44 0 105 -14q306 97 306 338q0 93 -67.5 152.5t-173.5 59.5q-159 0 -273 -138l-1 39q0 103 90.5 159.5t254.5 56.5 q169 0 269.5 -79.5t100.5 -213.5q0 -255 -343 -413q306 -86 306 -361q0 -209 -168 -348t-420 -139q-382 0 -382 203z" />
<glyph unicode="4" d="M234 522q0 40 13 115q304 414 423 886q95 25 149 25q49 0 49 -36q0 -69 -152 -340t-339 -535q289 55 535 75l77 384q10 52 13 66q14 66 14 103q0 41 -8 72q57 20 103 20q93 0 93 -89q0 -36 -29 -170q-16 -77 -21 -100l-57 -286q45 4 80 4q158 0 205.5 -46.5t61.5 -213.5 q-122 68 -381 83l-31 -155q-35 -177 -35 -267q0 -72 26 -118q-74 -36 -134 -36q-92 0 -92 119q0 54 38 244l43 213q-154 -12 -351 -42l-52 -8q-140 -20 -167 -20q-74 0 -74 53z" />
<glyph unicode="5" d="M328 174q0 22 4 63q156 -151 377 -151q159 0 271.5 118t112.5 285q0 156 -105 247t-285 91q-112 0 -215 -22l148 703q138 -28 285 -28q254 0 442 62q-36 -125 -116.5 -176.5t-242.5 -51.5q-148 0 -267 17l-96 -346q84 14 139 14q223 0 364 -136t141 -350 q0 -234 -167.5 -392t-417.5 -158q-372 0 -372 211z" />
<glyph unicode="6" d="M297 510q0 433 211.5 720t529.5 287q136 0 218 -44t82 -117q0 -24 -10 -73q-125 99 -294 99q-187 0 -329 -182t-184 -474q140 205 387 205q174 0 288.5 -115t114.5 -288q0 -226 -164 -395.5t-384 -169.5q-207 0 -336.5 151.5t-129.5 395.5zM493 527q0 -225 67 -328 q88 -137 225 -137q132 0 232.5 136t100.5 314q0 121 -69.5 196t-180.5 75q-251 0 -375 -256z" />
<glyph unicode="7" d="M430 31q0 106 97 332.5t215 393.5q237 337 491 532h-365l-57 -1q-221 0 -289.5 17t-68.5 72q0 21 6 50q4 16 10 44l11 59q75 -47 224 -47l65 1l138 -2l158 -2h368l-38 -191q-321 -279 -525 -629.5t-204 -622.5q0 -61 15 -134q-30 -8 -56 -8q-195 0 -195 136z" />
<glyph unicode="8" d="M267 329q0 272 411 496q-198 163 -198 329q0 162 125 262.5t325 100.5q182 0 296 -85t114 -220q0 -265 -329 -405l42 -32q249 -187 249 -379q0 -190 -152.5 -311.5t-392.5 -121.5q-220 0 -355 100.5t-135 265.5zM467 347q0 -115 99.5 -200t233.5 -85q126 0 214 84.5 t88 205.5q0 158 -285 360l-62 44q-288 -168 -288 -409zM676 1207q0 -125 197 -288l56 -46q216 107 216 312q0 102 -69.5 168t-176.5 66q-94 0 -158.5 -61.5t-64.5 -150.5z" />
<glyph unicode="9" d="M339 125q0 25 11 73q126 -100 294 -100q186 0 328.5 182.5t184.5 474.5q-140 -206 -387 -206q-174 0 -289 115t-115 288q0 227 164.5 396t384.5 169q207 0 336.5 -151.5t129.5 -395.5q0 -432 -211.5 -719.5t-530.5 -287.5q-136 0 -218 44t-82 118zM560 968 q0 -120 69.5 -195.5t180.5 -75.5q251 0 375 257q0 225 -67 328q-88 137 -225 137q-132 0 -232.5 -136t-100.5 -315z" />
<glyph unicode=":" horiz-adv-x="673" d="M319 240l72 14q72 14 105 14q87 0 87 -91q0 -36 -10 -87l-13 -68l-46 -8q-98 -18 -117 -18q-71 0 -71 74q0 20 4 39l5 26q4 17 4 36q0 41 -20 69zM501 1157l72 14q75 14 106 14q86 0 86 -92q0 -37 -10 -86l-13 -68l-46 -8q-96 -18 -116 -18q-71 0 -71 73q0 20 4 40l5 26 q3 17 3 36q0 41 -20 69z" />
<glyph unicode=";" horiz-adv-x="714" d="M193 -209q33 -7 55 -7q71 0 121 60.5t50 145.5q0 125 -124 210q105 72 189 72q139 0 139 -161q0 -154 -110.5 -290t-235.5 -136q-70 0 -84 106zM465 1157l71 14q75 14 107 14q86 0 86 -92q0 -36 -10 -86l-14 -68l-45 -8q-97 -18 -117 -18q-71 0 -71 73q0 20 4 40l5 26 q3 17 3 36q0 41 -19 69z" />
<glyph unicode="&#x3c;" d="M232 636q338 85 684 239t539 306q-11 -203 -140 -281q-263 -157 -776 -318q371 -132 527 -237t156 -222q0 -42 -19 -93q-184 211 -653 401l-98 40q-119 48 -150.5 71.5t-69.5 93.5z" />
<glyph unicode="=" d="M200 271q34 155 87 186t287 31h379q297 0 388 65q-23 -147 -85.5 -180t-316.5 -33h-372q-240 0 -367 -69zM325 623q27 135 78.5 179t182.5 44q36 0 94 -3q79 -4 104 -4h122q339 0 467 67q-37 -133 -111.5 -174t-277.5 -41h-214q-347 0 -445 -68z" />
<glyph unicode="&#x3e;" d="M219 22q16 192 148 278.5t736 298.5q-208 86 -408 199q-131 72 -176.5 127t-45.5 137q0 53 10 107q114 -139 381.5 -291.5t557.5 -243.5q-54 -86 -244 -158l-108 -42q-31 -12 -156 -60q-434 -163 -695 -352z" />
<glyph unicode="?" horiz-adv-x="1135" d="M525 1211q0 108 154 207t322 99q147 0 230 -74.5t83 -205.5q0 -188 -263 -390l-37 -29q-225 -173 -225 -338q0 -43 25 -88q-34 -22 -84 -22q-122 0 -122 104q0 144 216 322l45 36q242 200 242 355q0 189 -204 189q-208 0 -362 -244q-20 36 -20 79zM572 240l72 14 q73 14 106 14q86 0 86 -92q0 -36 -10 -86l-13 -68l-46 -8q-98 -18 -117 -18q-71 0 -71 74q0 20 4 39l5 26q4 18 4 38q0 39 -20 67z" />
<glyph unicode="@" horiz-adv-x="1906" d="M229 520q0 416 321.5 731.5t745.5 315.5q291 0 488 -183.5t197 -454.5q0 -231 -134.5 -392t-327.5 -161q-200 0 -200 265q0 35 5 103q-276 -430 -494 -430q-184 0 -184 247q0 248 146.5 426.5t350.5 178.5q128 0 262 -75q37 49 134 49q18 0 58 -2q-128 -192 -128 -472 q0 -154 108 -154q119 0 209.5 125.5t90.5 290.5q0 227 -166.5 380.5t-412.5 153.5q-377 0 -649.5 -273.5t-272.5 -650.5q0 -274 165 -443t430 -169q266 0 528 219q-16 -115 -56 -164q-51 -65 -187.5 -109.5t-284.5 -44.5q-338 0 -540 189t-202 504zM805 618q0 -156 95 -156 q59 0 197 150.5t264 351.5q-116 97 -229 97q-127 0 -227 -135t-100 -308z" />
<glyph unicode="A" horiz-adv-x="1560" d="M72 454q47 169 253 169l124 -3l27 40q157 236 480 635q109 135 163 168t209 60q-29 -180 -29 -335q0 -411 95 -833q52 -232 159 -299q-94 -93 -161 -93q-158 0 -244 542q-165 -18 -333 -18l-273 5l-20 -38q-126 -235 -126 -364q0 -38 29 -74q-24 -8 -108 -39 q-39 -14 -74 -14q-70 0 -70 67q0 139 173 424l31 51h-51q-164 0 -254 -51zM614 610l202 -5q207 0 317 14q-46 351 -46 582l1 75q-33 -42 -148 -182q-208 -255 -305 -445z" />
<glyph unicode="B" horiz-adv-x="1544" d="M168 1059q0 172 278.5 315t611.5 143q186 0 300.5 -71t114.5 -186q0 -213 -303 -400q177 -48 277.5 -145t100.5 -220q0 -242 -263 -412t-637 -170q-275 0 -275 173q0 41 30 192l141 709q17 85 17 121q0 35 -24 64q132 50 185 50q62 0 62 -71q0 -18 -33 -176l-131 -657 q-22 -114 -22 -149q0 -126 240 -126q197 0 337.5 113.5t140.5 272.5q0 124 -78 194t-260 108q-65 -26 -142 -26q-26 0 -65 9q29 107 72.5 144t140.5 37q25 0 67 -3q213 156 213 309q0 181 -276 181q-447 0 -794 -427q-26 55 -26 104z" />
<glyph unicode="C" horiz-adv-x="1450" d="M229 520q0 409 268 703t641 294q152 0 256 -54t104 -132q0 -70 -90 -154q-121 242 -343 242q-243 0 -424 -252.5t-181 -589.5q0 -215 108.5 -340.5t293.5 -125.5q316 0 580 301q19 -45 19 -71q0 -130 -222.5 -254t-456.5 -124q-256 0 -404.5 149t-148.5 408z" />
<glyph unicode="D" horiz-adv-x="1773" d="M168 1052q0 180 275 322.5t623 142.5q366 0 576.5 -162t210.5 -444q0 -375 -327 -661q-173 -151 -432.5 -247t-496.5 -96q-228 0 -228 171q0 62 39 256l130 653q17 84 17 121q0 35 -24 64q133 50 185 50q62 0 62 -72q0 -17 -32 -175l-109 -547q-41 -209 -41 -263 q0 -60 40.5 -81.5t152.5 -21.5q363 0 608 221t245 548q0 253 -178 405t-474 152q-241 0 -449.5 -116t-348.5 -327q-24 52 -24 107z" />
<glyph unicode="E" horiz-adv-x="1270" d="M185 1239q50 160 137 206q68 35 419 35h298q282 0 458 56q-79 -125 -140.5 -152t-266.5 -27h-323l-99 -493h207q217 0 346 55q-68 -127 -121 -153t-249 -26h-207l-51 -257q-32 -160 -32 -227q0 -133 258 -133q256 0 451 91q-45 -150 -149 -185q-63 -21 -219 -43.5 t-240 -22.5q-327 0 -327 217q0 58 32 223l67 337h-15q-101 0 -196 -44q55 108 90.5 138t112.5 30h33l98 493h-29q-185 0 -343 -118z" />
<glyph unicode="F" horiz-adv-x="1255" d="M276 1232q39 158 135 211q68 37 422 37h263q294 0 489 52q-62 -109 -129.5 -145.5t-207.5 -36.5l-88 1h-306l-119 -598h216q201 0 332 51q-48 -113 -110.5 -144t-245.5 -31h-216l-138 -691q-19 -95 -19 -123t13 -60q-101 -51 -185 -51q-52 0 -52 42q0 22 20 124l151 759 h-15q-90 0 -194 -43q49 106 86.5 136.5t119.5 30.5h27l120 598h-22q-218 0 -347 -119z" />
<glyph unicode="G" horiz-adv-x="1469" d="M228 546q0 380 323.5 675.5t739.5 295.5q277 0 277 -111q0 -47 -96 -157q-10 -11 -28 -33q-70 166 -287 166q-291 0 -505 -232t-214 -548q0 -212 108.5 -339t287.5 -127q161 0 281 121t160 325l8 43q-309 0 -495 -85q38 128 91 161.5t244 51.5l125 10q148 12 290 51 l-158 -586q-97 -359 -147 -418.5t-266 -73.5q110 148 233 468q-214 -204 -441 -204q-230 0 -380.5 154.5t-150.5 391.5z" />
<glyph unicode="H" horiz-adv-x="1771" d="M168 634q42 121 111 163t224 42h35l103 519q-88 -13 -164 -13q-158 0 -187 208q72 -60 194 -60q159 0 400 31l-137 -685h526q95 427 200 634q58 113 105 143t185 40q17 2 51 4q-237 -272 -336 -821h18q78 0 194 71q-24 -194 -193 -194h-44q-30 -156 -30 -329 q0 -288 177 -288q73 0 162 62q-15 -198 -260 -198q-287 0 -287 438q0 148 34 315h-526l-125 -630q-20 -92 -20 -131q0 -21 12 -52q-101 -51 -183 -51q-53 0 -53 42q0 21 20 124l139 698h-41q-147 0 -304 -82z" />
<glyph unicode="I" horiz-adv-x="1117" d="M171 124q71 -39 148 -39q42 0 140 15l248 1244q-108 -18 -187 -18q-138 0 -138 162q39 -26 98 -26q72 0 210 26l158 30q165 30 252 30q135 0 156 -181q-56 27 -117 27q-77 0 -173 -14q-15 -3 -44 -6l-247 -1243q191 25 271 25q130 0 130 -181q-73 25 -154 25 q-78 0 -191 -15l-228 -30q-122 -17 -171 -17q-84 0 -119 40t-42 146z" />
<glyph unicode="J" horiz-adv-x="1105" d="M-240 -208q0 95 135 175q0 -115 71.5 -183t193.5 -68q179 0 270.5 136.5t166.5 513.5l194 976q-143 -28 -180 -28q-128 0 -143 161q44 -25 106 -25q79 0 261 38l97 21q129 27 224 27q110 0 156 -44t63 -165q-90 61 -210 61q-64 0 -158 -15l-176 -886q-94 -470 -302 -688 t-442 -218q-121 0 -224 66.5t-103 144.5z" />
<glyph unicode="K" horiz-adv-x="1512" d="M190 1546q72 -59 194 -59q153 0 400 30l-145 -729q573 390 675 737q142 -73 142 -156q0 -46 -210.5 -235t-428.5 -339q183 -345 358 -560.5t271 -215.5q102 0 225 113l1 -26q0 -75 -105 -155.5t-203 -80.5q-256 0 -738 854l-105 -527q-19 -94 -19 -123q0 -28 13 -60 q-103 -51 -185 -51q-52 0 -52 42q0 22 21 127l242 1219q-88 -12 -164 -12q-157 0 -187 207z" />
<glyph unicode="L" horiz-adv-x="1252" d="M322 181q0 61 34 231l195 982q17 85 17 122q0 34 -24 63q133 50 185 50q62 0 62 -71q0 -18 -33 -176l-174 -877q-38 -189 -38 -263q0 -125 277 -125q247 0 509 101q-33 -98 -78 -143t-227.5 -78.5t-385.5 -33.5q-319 0 -319 218z" />
<glyph unicode="M" horiz-adv-x="1918" d="M250 45q0 91 60 323l221 852l-41 126q-70 211 -136 257q95 61 169 61q55 0 94.5 -86.5t144.5 -440.5q21 -71 35 -112l18 -50q152 -443 265 -443q123 0 342.5 358.5t238.5 589.5q111 37 164 37q98 0 98 -108q0 -36 -23 -200q-22 -149 -31 -239l-69 -652q-7 -69 -7 -134 q0 -199 81 -248q-103 -72 -176 -72q-119 0 -119 247q0 99 15 242l87 827q-119 -358 -307 -609.5t-336 -251.5q-116 0 -229 173.5t-194 477.5l-131 -657q-25 -127 -25 -199q0 -75 63 -117q-109 -34 -170 -34q-102 0 -102 82z" />
<glyph unicode="N" horiz-adv-x="1667" d="M261 66q0 98 119 609l149 638l-29 78q-59 159 -148 191q154 71 194 71q67 0 100.5 -62.5t294.5 -679.5q293 -693 386 -693q69 0 134.5 294.5t65.5 605.5q0 250 -119 329q98 70 177 70q119 0 119 -194q0 -154 -53.5 -472t-115.5 -535q-102 -353 -227 -353 q-108 0 -231.5 190.5t-329.5 673.5q-67 156 -91 209l-33 72l-127 -640q-36 -182 -36 -275q0 -139 79 -195q-91 -35 -166 -35q-112 0 -112 103z" />
<glyph unicode="O" horiz-adv-x="1770" d="M244 583q0 292 196.5 503t479.5 224q155 207 409 207q217 0 358 -157.5t141 -399.5q0 -377 -303 -687t-671 -310q-265 0 -437.5 175.5t-172.5 444.5zM460 646q0 -241 140 -397.5t357 -156.5q260 0 459 246t199 569q0 188 -99 316t-244 128q-147 0 -255 -119.5 t-108 -283.5q0 -116 55 -214q-109 20 -145.5 59t-36.5 138q0 129 62 270q-178 -43 -281 -191t-103 -364z" />
<glyph unicode="P" horiz-adv-x="1406" d="M213 711q0 23 10 59q108 -89 262 -129l69 346q17 85 17 121q0 35 -24 64q133 50 185 50q62 0 62 -72q0 -17 -33 -175l-70 -352q288 0 471 142t183 364q0 122 -95.5 196.5t-252.5 74.5q-468 0 -751 -392q-24 62 -24 97q0 151 270.5 281.5t585.5 130.5q478 0 478 -352 q0 -257 -248.5 -449t-580.5 -192l-55 1l-88 -439q-19 -95 -19 -123t13 -60q-103 -51 -185 -51q-52 0 -52 42q0 22 20 125l105 524q-253 57 -253 168z" />
<glyph unicode="Q" horiz-adv-x="1766" d="M245 585q0 291 196 500t482 224q167 208 414 208q216 0 356 -161t140 -409q0 -280 -176.5 -524t-487.5 -391q296 -257 670 -346q-109 -106 -223 -106q-81 0 -246.5 117t-333.5 292q-92 -26 -182 -26q-262 0 -435.5 177.5t-173.5 444.5zM459 643q0 -237 131.5 -385 t357.5 -166q-154 150 -154 234q0 70 81 140q52 -189 211 -357q224 66 377 295.5t153 501.5q0 186 -97 306.5t-247 120.5q-133 0 -226.5 -92.5t-93.5 -223.5l1 -40q-115 20 -115 111q0 55 25 114q-189 -38 -296.5 -186.5t-107.5 -372.5z" />
<glyph unicode="R" horiz-adv-x="1640" d="M168 1063q0 166 281.5 310t603.5 144q496 0 496 -316q0 -153 -106.5 -260.5t-371.5 -223.5q239 -545 412 -545q91 0 195 128q5 -25 5 -35q0 -84 -99 -174.5t-191 -90.5q-234 0 -499 638q-53 -15 -96 -15q-21 0 -39 8q37 189 188 189q30 0 74 -12q328 110 328 365 q0 94 -93.5 154.5t-238.5 60.5q-246 0 -473 -122.5t-335 -314.5q-41 47 -41 112zM332 -106q0 22 23 125l192 968q17 84 17 121q0 35 -24 64q133 50 185 50q63 0 63 -72q0 -17 -33 -175l-177 -889q-19 -93 -19 -131q0 -21 10 -52q-102 -51 -185 -51q-52 0 -52 42z" />
<glyph unicode="S" horiz-adv-x="1147" d="M133 165q0 83 135 184q0 -163 89.5 -256t247.5 -93q140 0 243 84t103 197q0 121 -227 333l-110 102q-211 196 -211 361q0 192 150 316t382 124q123 0 199 -37.5t76 -97.5q0 -59 -54 -137q-87 168 -283 168q-122 0 -205.5 -75.5t-83.5 -186.5q0 -74 27.5 -113t170.5 -170 l90 -83q246 -229 246 -411q0 -212 -168 -351.5t-423 -139.5q-171 0 -282.5 80t-111.5 202z" />
<glyph unicode="T" horiz-adv-x="1359" d="M261 1281q33 133 89 166t245 33h677q273 0 361 197q35 -59 35 -95q0 -130 -161 -209q-97 -47 -368 -47h-120l-225 -1129q-19 -94 -19 -123q0 -28 13 -60q-103 -51 -185 -51q-52 0 -52 42q0 21 20 124l238 1197h-139q-237 0 -409 -45z" />
<glyph unicode="U" horiz-adv-x="1743" d="M227 1546q75 -59 194 -59q68 0 454 35q-353 -690 -353 -1053q0 -130 64.5 -213t165.5 -83q142 0 281.5 139.5t262.5 404.5q88 487 156.5 599t276.5 112q-91 -117 -180 -488.5t-89 -634.5q0 -207 126 -207q79 0 186 85q4 -24 4 -36q0 -68 -82 -126t-178 -58 q-269 0 -269 342q0 48 10 140q-301 -433 -591 -433q-157 0 -259 114.5t-102 290.5q0 353 274 937q-83 -16 -154 -16q-93 0 -137 46.5t-61 161.5z" />
<glyph unicode="V" horiz-adv-x="1372" d="M184 1514q101 108 167 108q126 0 240 -406q150 -531 150 -991q628 839 628 1150q0 44 -23 85q84 57 172 57q80 0 80 -77q0 -133 -172 -435.5t-476 -704.5q-159 -209 -225.5 -260.5t-213.5 -78.5q19 108 19 256q0 334 -120 836q-56 237 -97.5 321.5t-128.5 139.5z" />
<glyph unicode="W" horiz-adv-x="1942" d="M209 1573q102 25 148 25q66 0 96.5 -62t77.5 -293q73 -354 106 -970q334 688 545 1079q13 2 19 3q42 9 57 9q83 0 83 -79q0 -23 -5 -57q-40 -325 -40 -480l-3 -114l-1 -68q0 -375 114 -375q130 0 266 272q151 304 151 710q0 175 -87 326q72 18 131 18q92 0 130 -51.5 t38 -178.5q0 -411 -237 -838q-109 -196 -245.5 -323t-238.5 -127q-114 0 -160.5 127t-46.5 439q0 125 13 384q-241 -418 -368 -690l-33 -73q-71 -146 -112.5 -177t-196.5 -51q26 102 26 267q0 406 -63.5 782.5t-163.5 565.5z" />
<glyph unicode="X" horiz-adv-x="1402" d="M146 113q0 72 132.5 247t305.5 331l56 51l-26 45q-70 116 -144.5 316t-74.5 268q0 97 129 139l47 15q7 -94 77 -293t143 -333l19 -35l33 24q136 104 224.5 253.5t88.5 275.5q0 25 -7 52l27 14q65 34 125 34q61 0 61 -63q0 -126 -133.5 -311t-340.5 -345l-30 -24l20 -40 q97 -191 255 -378q100 -118 164.5 -158.5t154.5 -40.5q37 0 85 19q-122 -195 -240 -195q-120 0 -300 203q-59 66 -157 210.5t-129 210.5l-21 44l-28 -30q-339 -364 -357 -656l-56 35q-103 63 -103 115z" />
<glyph unicode="Y" horiz-adv-x="1196" d="M157 1500q105 73 159 73q192 0 450 -785q197 173 345.5 359t148.5 260q0 41 -33 72q85 38 134 38q82 0 82 -87q0 -97 -198 -325t-442 -413l-98 -495q-19 -94 -19 -123q0 -28 12 -60q-102 -51 -184 -51q-53 0 -53 42q0 22 21 125l111 562q-61 273 -184.5 502t-251.5 306z " />
<glyph unicode="Z" horiz-adv-x="1313" d="M120 69q0 21 19 106q326 432 979 1104q21 22 95 101q-288 -19 -431 -27q-164 -8 -209 -8q-223 0 -223 156q0 18 4 93q91 -114 449 -114h126q292 0 474 35q-17 -114 -36.5 -156t-84.5 -107q-153 -153 -497 -542t-436 -514q123 8 239 8q461 0 618 -74q77 -37 77 -176 q0 -21 -5 -67q-126 76 -294 107t-445 31q-119 0 -234 -13l-34 -3l-65 -7q-86 0 -86 67z" />
<glyph unicode="[" horiz-adv-x="1113" d="M450 -85q0 72 30 235l314 1577h260q198 0 276 29q-33 -91 -69 -119t-119 -28l-89 1h-104l-296 -1489q-30 -153 -30 -220q0 -127 201 -127q73 0 145 28q-25 -82 -65 -107.5t-145 -25.5q-309 0 -309 246z" />
<glyph unicode="\" horiz-adv-x="1012" d="M269 1735q53 17 88 17q136 0 217 -260q123 -395 267 -1006q53 -226 77 -327q45 -187 45 -257q0 -126 -165 -215q10 57 10 115q0 353 -191 1038.5t-348 894.5z" />
<glyph unicode="]" horiz-adv-x="1113" d="M214 -331q33 91 69 119t119 28l89 -1h104l296 1489q30 153 30 220q0 127 -201 127q-72 0 -145 -28q25 82 65 107.5t144 25.5q310 0 310 -246q0 -85 -30 -235l-314 -1577h-260q-200 0 -276 -29z" />
<glyph unicode="^" d="M184 389q222 207 453.5 541.5t302.5 549.5q66 -26 85 -60t53 -182l18 -78q106 -459 293 -771q-159 0 -241 142.5t-203 628.5q-144 -283 -366 -554q-112 -137 -185 -177t-210 -40z" />
<glyph unicode="_" horiz-adv-x="1024" d="M87 19q58 -19 185 -19h320q365 0 365 -183v-14q-100 49 -323 49h-252q-147 0 -209.5 35.5t-85.5 131.5z" />
<glyph unicode="`" d="M876 1548q-3 54 166 95q61 -215 205 -360q-22 -2 -34 -2q-118 0 -235 123q-100 106 -102 144z" />
<glyph unicode="a" horiz-adv-x="1621" d="M247 321q0 313 189.5 551t438.5 238q151 0 327 -94q26 93 212 93q12 0 39 -1q-57 -87 -87 -238l-17 -85q-29 -142 -29 -332q0 -219 102 -219q108 0 295.5 180.5t368.5 459.5l78 -54q-185 -330 -423 -550.5t-409 -220.5q-216 0 -216 360q0 75 6 202 q-128 -265 -315.5 -450.5t-326.5 -185.5q-106 0 -169.5 94.5t-63.5 251.5zM449 368q0 -202 132 -202q143 0 547 628q5 8 41 56q-210 137 -349 137q-151 0 -261 -183.5t-110 -435.5z" />
<glyph unicode="b" horiz-adv-x="1346" d="M254 1750q65 -62 208 -62q125 0 333 64l-236 -1184q-23 -120 -23 -212q0 -123 65 -199.5t169 -76.5q157 0 266.5 142.5t109.5 344.5q0 100 -33 195q-126 42 -206.5 109t-80.5 132q0 34 28 89q270 -21 411 -234q130 -62 274 -62q147 0 299 89l51 -81q-174 -132 -390 -132 q-99 0 -188 25q14 -49 14 -100q0 -251 -176 -436.5t-414 -185.5q-174 0 -283.5 104t-109.5 268q0 119 44 341l168 848q-49 -9 -86 -9q-214 0 -214 223z" />
<glyph unicode="c" horiz-adv-x="1170" d="M263 419q0 278 207 484.5t486 206.5q113 0 185.5 -43.5t72.5 -110.5q0 -110 -187 -165q10 24 10 46q0 162 -172 162q-149 0 -274.5 -166.5t-125.5 -364.5q0 -161 83.5 -262.5t217.5 -101.5q368 0 862 763l84 -50q-242 -406 -513 -639.5t-503 -233.5q-193 0 -313 132 t-120 343z" />
<glyph unicode="d" horiz-adv-x="1615" d="M247 319q0 316 188 553.5t437 237.5q149 0 325 -95l107 539q-88 -18 -146 -18q-88 0 -129 41.5t-66 155.5q72 -49 221 -49q185 0 357 68l-218 -1096q-37 -184 -37 -313q0 -172 98 -172q96 0 319.5 225t372.5 471l82 -52q-178 -326 -444.5 -583t-425.5 -257 q-202 0 -202 324q0 134 25 286q-156 -281 -326.5 -445.5t-304.5 -164.5q-107 0 -170 93.5t-63 250.5zM449 368q0 -202 132 -202q142 0 546 628q7 11 37 56q-208 137 -346 137q-150 0 -259.5 -184t-109.5 -435z" />
<glyph unicode="e" horiz-adv-x="1198" d="M248 408q0 290 189.5 496t456.5 206q129 0 206.5 -65t77.5 -174q0 -179 -215.5 -317t-495.5 -138q0 -293 248 -293q215 0 474 205t467 540l85 -47q-196 -366 -509.5 -606t-594.5 -240q-180 0 -284.5 116t-104.5 317zM475 512q209 11 358.5 120t149.5 252q0 128 -114 128 q-136 0 -251 -146t-143 -354z" />
<glyph unicode="f" horiz-adv-x="740" d="M133 722q24 128 70.5 162.5t195.5 34.5h38l33 165q67 336 214 484q182 184 403 184q86 0 148 -40t62 -97q0 -58 -129 -133q-36 153 -164 153q-227 0 -325 -494l-44 -222h349q239 0 351 26q-48 -106 -109.5 -127.5t-316.5 -21.5h-299l-170 -858q-25 -124 -25 -217 q0 -59 26 -107q-100 -33 -154 -33q-83 0 -83 93q0 73 33 240l176 882h-20q-149 0 -260 -74z" />
<glyph unicode="g" horiz-adv-x="1462" d="M225 365q0 276 210 510.5t458 234.5q128 0 276 -73q20 96 58 121t193 41q-78 -157 -149 -748l-13 -102q429 258 662 527l84 -53q-220 -287 -753 -626q-3 -39 -4 -58q-15 -251 -53 -370t-137 -226q-194 -209 -472 -209q-149 0 -242 70.5t-93 182.5q0 109 80.5 191 t302.5 200q147 77 415 230l35 393q-97 -200 -281 -351t-330 -151q-109 0 -178 74t-69 192zM438 419q0 -148 109 -148q106 0 281.5 176.5t305.5 413.5q-130 138 -286 138q-148 0 -279 -185.5t-131 -394.5zM457 -403q0 -66 56 -109t143 -43q382 0 382 630q-58 -35 -235 -134 q-346 -195 -346 -344z" />
<glyph unicode="h" horiz-adv-x="1535" d="M215 1752q96 -72 223 -72q179 0 344 72l-164 -827q-3 -14 -92 -372q-7 -30 -24 -114q298 671 608 671q124 0 179 -103.5t55 -335.5l1 -120q0 -312 92 -317h2q73 0 231 178q160 181 325 455l83 -46q-162 -321 -365.5 -543t-335.5 -222q-123 0 -177 115t-54 376v89 q0 302 -104 302q-147 0 -375 -405q-230 -408 -230 -484q0 -25 19 -49q-45 -25 -117 -25q-89 0 -89 79q0 55 63 333q2 9 26 129l205 1032q-67 -25 -135 -25q-194 0 -194 229z" />
<glyph unicode="i" horiz-adv-x="908" d="M330 240q0 45 20 143l22 110q49 238 49 334q0 57 -34 93q130 30 163 30q74 0 74 -104q0 -77 -29 -221l-39 -195q-29 -141 -29 -183q0 -124 105 -124q125 0 333 210.5t403 533.5l83 -49q-226 -396 -457 -619.5t-415 -223.5q-112 0 -180.5 73t-68.5 192zM538 1196 q0 70 23 126l14 -1q67 3 192.5 67.5t196.5 131.5q-44 -138 -156 -231q-170 -142 -230 -142q-40 0 -40 49z" />
<glyph unicode="j" horiz-adv-x="584" d="M-339 -531q0 68 132 160q-3 -23 -3 -35q0 -65 45 -113.5t106 -48.5q140 0 226 190q38 83 106 432l87 439q49 239 49 334q0 57 -33 93q129 30 163 30q74 0 74 -105q0 -76 -29 -220l-116 -586q-69 -348 -184 -486q-182 -219 -400 -219q-89 0 -156 40.5t-67 94.5zM540 1196 q0 70 22 126l14 -1q67 4 193 68t197 131q-44 -138 -157 -231q-170 -142 -230 -142q-39 0 -39 49z" />
<glyph unicode="k" horiz-adv-x="1328" d="M274 69q0 73 33 239l245 1234q-92 -33 -157 -33q-117 0 -117 105q0 35 20 124q73 -73 176 -73q133 0 314 87l-221 -1128q158 190 343 338t263 148q47 0 106 -134q-98 -11 -267.5 -109t-277.5 -205q252 -398 440 -398q88 0 172.5 63.5t224.5 235.5q133 164 218 307l83 -48 q-182 -335 -385 -541.5t-351 -206.5q-122 0 -298.5 151.5t-280.5 345.5l-48 -238q-25 -125 -25 -218q0 -58 26 -106q-102 -34 -154 -34q-82 0 -82 94z" />
<glyph unicode="l" horiz-adv-x="832" d="M258 1722v23q120 -68 271 -68t264 75l-232 -1203q-31 -162 -31 -223q0 -169 124 -169q120 0 241.5 135.5t398.5 577.5l80 -55q-207 -393 -416 -616.5t-370 -223.5q-117 0 -189 90.5t-72 236.5q0 82 30 232l199 1002q-39 -6 -68 -6q-230 0 -230 192z" />
<glyph unicode="m" horiz-adv-x="2201" d="M382 87q0 14 30 291l23 213q12 112 12 207q0 120 -49 176q116 42 164 42q88 0 88 -104q0 -37 -24 -275l-28 -286q360 760 636 760q121 0 121 -175q0 -75 -52 -338l-60 -303q175 368 365 591.5t328 223.5q152 0 152 -178q0 -64 -45 -293l-31 -156q-28 -141 -28 -209 q0 -120 85 -120q192 0 590 714l84 -47q-434 -846 -758 -846q-207 0 -207 270q0 90 40 289l28 138q28 140 28 174q0 43 -44 43q-108 0 -387 -429q-253 -391 -253 -447q0 -6 4 -21q-14 -3 -49 -13q-15 -5 -45 -5q-93 0 -93 89q0 27 30 163q11 49 22 105l42 212q46 229 46 275 q0 67 -49 67q-108 0 -318 -387q-209 -384 -209 -458q0 -21 16 -41q-55 -24 -101 -24q-104 0 -104 112z" />
<glyph unicode="n" horiz-adv-x="1652" d="M382 87q0 32 26 288l22 217q15 138 15 214q0 106 -48 167q21 7 70 24q62 22 99 22q78 0 78 -114q0 -60 -15 -206q-3 -32 -6 -61l-26 -279q355 751 638 751q221 0 221 -440l2 -121q0 -210 21.5 -290.5t78.5 -80.5q86 0 195.5 137t356.5 551l84 -49q-220 -415 -394 -616 t-312 -201q-127 0 -178.5 123t-51.5 426l-1 86q0 164 -21 230.5t-73 66.5q-132 0 -425 -527q-72 -129 -93 -166q-77 -134 -77 -194q0 -24 13 -46q-58 -24 -98 -24q-101 0 -101 112z" />
<glyph unicode="o" horiz-adv-x="1373" d="M231 437q0 233 163.5 404t385.5 171q34 0 72 -9q-25 45 -25 76q0 48 33 92q244 -20 406 -250q166 -113 346 -113q117 0 253 79l50 -85q-159 -111 -326 -111q-111 0 -252 46q3 -24 3 -43q0 -289 -196 -504t-459 -215q-201 0 -327.5 128.5t-126.5 333.5zM439 411 q0 -142 79.5 -233.5t204.5 -91.5q169 0 291 170.5t122 406.5q0 82 -26 159q-83 25 -153 80q-51 11 -85 11q-170 0 -301.5 -153t-131.5 -349z" />
<glyph unicode="p" horiz-adv-x="1252" d="M131 1313q73 -49 222 -49q185 0 356 68l-77 -386q170 164 352 164q159 0 265 -120.5t106 -300.5q0 -281 -195 -485t-463 -204q-145 0 -241 62l-73 -370q-25 -125 -25 -218q0 -59 26 -107q-101 -33 -154 -33q-83 0 -83 94q0 73 33 239l292 1468q-87 -18 -146 -18 q-87 0 -128.5 41.5t-66.5 154.5zM487 217q101 -118 248 -118q176 0 299.5 148t123.5 360q0 153 -70 248t-182 95q-140 0 -304 -158z" />
<glyph unicode="q" horiz-adv-x="1302" d="M247 322q0 313 188.5 550.5t437.5 237.5q148 0 324 -94q29 92 225 92h29q-58 -97 -85 -233l-235 -1183q-25 -125 -25 -218q0 -59 26 -107q-101 -33 -154 -33q-82 0 -82 94q0 73 33 239l183 921q-345 -613 -633 -613q-106 0 -169 94.5t-63 252.5zM449 368q0 -202 131 -202 q143 0 547 628q5 9 37 56q-209 137 -346 137q-150 0 -259.5 -184t-109.5 -435z" />
<glyph unicode="r" horiz-adv-x="1108" d="M297 65q0 46 36 229l50 249q46 222 46 329q0 58 -33 97q105 36 171 36q70 0 70 -89q0 -55 -50 -289l-57 -291q189 367 380.5 570.5t347.5 203.5q55 0 95 -31.5t40 -76.5q0 -70 -152 -186q-38 79 -108 79q-127 0 -324 -270q-122 -168 -212 -346.5t-90 -254.5l1 -17 q-68 -32 -109 -32q-102 0 -102 90z" />
<glyph unicode="s" horiz-adv-x="879" d="M223 4q0 78 97.5 158t326.5 190l-80 129q-146 235 -146 367q0 190 221 306q136 -52 136 -131q0 -112 -173 -215l114 -210l89 -162q191 114 288 195.5t245 251.5l80 -49q-215 -288 -561 -482q34 -76 34 -145q0 -153 -128 -266.5t-300 -113.5q-101 0 -172 52t-71 125z M396 17q0 -82 119 -82q88 0 143 59.5t55 153.5q0 56 -23 114q-294 -158 -294 -245z" />
<glyph unicode="t" horiz-adv-x="900" d="M119 1031q58 106 96 133t129 27h151l20 69q46 154 110 211.5t192 57.5q15 0 48 -2q-78 -100 -162 -336h528q139 0 212 36q-25 -103 -66.5 -134.5t-154.5 -31.5h-562q-10 -33 -15 -49q-121 -412 -121 -622q0 -232 167 -232q86 0 187.5 73t144.5 165q27 -49 27 -86 q0 -98 -165.5 -216.5t-301.5 -118.5q-120 0 -195.5 107t-75.5 276q0 188 99 535l46 168h-169q-106 0 -169 -30z" />
<glyph unicode="u" horiz-adv-x="1599" d="M313 252q0 158 106 580q29 114 29 144t-19 65l138 1q89 0 89 -69q0 -43 -58 -247q-18 -61 -23 -84l-15 -61q-44 -183 -44 -279q0 -148 102 -148q167 0 424 414q210 337 210 480q0 20 -12 40q82 23 139 23q88 0 88 -54q0 -13 -8 -38q-4 -15 -19 -73q-2 -11 -20 -81 q-13 -49 -19 -78l-10 -48q-33 -165 -33 -309q0 -220 106 -220q234 0 594 660l84 -50q-410 -789 -750 -789q-229 0 -229 397q0 75 8 188q-138 -285 -308 -463t-305 -178q-109 0 -177 77t-68 200z" />
<glyph unicode="v" horiz-adv-x="1156" d="M223 1122q87 44 156 44q110 0 222.5 -288.5t161.5 -697.5q175 222 289 458t129 407q150 -60 150 -136q0 -68 -143.5 -308t-311.5 -454q-82 -104 -138 -134t-186 -40q22 88 22 152q0 247 -105 546t-246 451z" />
<glyph unicode="w" horiz-adv-x="1715" d="M249 1125q92 41 151 41q108 0 183 -251.5t103 -704.5q147 190 249 405.5t102 337.5q0 9 -1 33q87 32 133 32q87 0 87 -66q0 -21 -35 -219q-8 -48 -12 -85l-6 -68q-7 -79 -7 -178q0 -279 128 -279q118 0 207.5 203t89.5 469q0 189 -95 227q90 70 167 70q120 0 120 -186 q0 -273 -192 -631q-168 -312 -369 -312q-227 0 -227 384l7 233q-113 -256 -242 -431q-127 -171 -328 -171q25 88 25 205q0 283 -69 557t-169 385z" />
<glyph unicode="x" horiz-adv-x="1317" d="M299 -58q0 154 313 488q-71 120 -133.5 293.5t-62.5 250.5q0 82 199 116q-7 -22 -7 -40q0 -182 156 -483q261 300 261 477l-1 13q12 1 55 4h12q108 0 108 -58q0 -144 -384 -524q149 -232 318 -232q301 0 643 621l84 -48q-223 -398 -410 -578t-378 -180q-227 0 -400 272 q-204 -280 -253 -541q-120 74 -120 149z" />
<glyph unicode="y" horiz-adv-x="1178" d="M-35 -455q0 46 24 108q55 -34 136 -34q293 0 560 387q-43 268 -152.5 530.5t-236.5 400.5q74 62 152 62q67 0 111.5 -60.5t111.5 -243.5q105 -287 157 -520q338 535 366 935q175 -26 175 -117q0 -96 -157.5 -395t-339.5 -548q-210 -287 -417 -452.5t-356 -165.5 q-134 0 -134 113z" />
<glyph unicode="z" horiz-adv-x="1273" d="M295 -433q0 206 616 569q-81 37 -173 37q-147 0 -307 -74q-3 29 -3 42q0 128 91 163q54 78 205 261l256 310q-105 -30 -205 -42l-80 -9q-203 -22 -289 -111q24 191 88 245t266 54h89q194 0 270 66q36 -55 36 -114q0 -60 -87 -164q-23 -27 -200 -252l-165 -212q65 9 110 9 q155 0 271 -95q379 255 649 625l83 -51q-221 -352 -665 -670q34 -88 34 -145q0 -260 -180.5 -467.5t-405.5 -207.5q-132 0 -218 66t-86 167zM468 -436q0 -55 46 -93.5t112 -38.5q144 0 275.5 154t131.5 322q0 75 -41 148q-524 -335 -524 -492z" />
<glyph unicode="{" horiz-adv-x="1147" d="M430 738q0 21 6 64q62 -31 107 -31q175 0 259 359l22 92q124 530 456 530q132 0 144 -111q-34 7 -61 7q-130 0 -194.5 -72.5t-120.5 -281.5l-32 -117q-59 -220 -153.5 -332t-268.5 -167q245 -82 245 -268q0 -113 -63 -265l-30 -72q-45 -107 -45 -142q0 -126 196 -126 q48 0 104 14q-42 -115 -161 -115q-336 0 -336 240q0 64 44 169l30 73q16 40 31 75q61 144 61 211q0 82 -110 134l-40 19q-90 42 -90 113z" />
<glyph unicode="|" horiz-adv-x="617" d="M198 -209q0 29 29 168l255 1284q41 202 41 286q0 36 -10 74q161 -22 161 -111q0 -43 -30 -186q-13 -56 -17 -78l-252 -1265q-25 -127 -25 -196q0 -27 6 -64q-158 8 -158 88z" />
<glyph unicode="}" horiz-adv-x="871" d="M44 -192q33 -9 61 -9q126 0 195 81.5t121 291.5l13 49q61 247 132.5 358t233.5 211q-213 25 -213 176q0 104 73 271l33 75q67 151 67 204q0 131 -181 131q-59 0 -124 -21q28 126 151 126q350 0 350 -238q0 -79 -73 -254l-26 -65q-74 -183 -74 -237q0 -87 145 -87 q47 0 101 15q-14 -78 -31.5 -102t-75.5 -45l-17 -5q-94 -33 -142.5 -110.5t-91.5 -262.5q-5 -19 -20 -82l-24 -96q-117 -479 -457 -479q-116 0 -126 104z" />
<glyph unicode="~" d="M263 544q0 88 85 160.5t189 72.5q81 0 234 -87l80 -44q160 -91 229 -91q165 0 165 205q96 -36 96 -122q0 -93 -87.5 -165t-199.5 -72q-105 0 -277 99l-97 55q-119 68 -172 68q-62 0 -106 -49.5t-44 -119.5q0 -10 1 -29q-96 28 -96 119z" />
<glyph unicode="&#xa0;" />
<glyph unicode="&#xa1;" horiz-adv-x="786" d="M412 -288q0 95 79 424q36 152 55 248l14 69q15 76 15 144q0 44 -14 86q14 3 53 11q14 3 33 3q85 0 85 -79q0 -44 -18 -133l-20 -100q-72 -367 -72 -674q0 -32 7 -69q-88 -37 -119 -37q-98 0 -98 107zM565 908q0 36 10 88l13 67l46 8q97 19 117 19q71 0 71 -74 q0 -20 -4 -40l-5 -25q-4 -18 -4 -39q0 -39 20 -67l-71 -13q-74 -15 -107 -15q-86 0 -86 91z" />
<glyph unicode="&#xa2;" d="M355 610q0 247 156.5 432t416.5 247l13 65q16 79 16 128q0 11 -2 36q105 -9 105 -62q0 -20 -13 -80q-11 -50 -16 -78h31q107 0 179.5 -50t72.5 -124q0 -56 -174 -116q3 20 3 29q0 107 -134 149l-176 -904q31 -3 45 -3q153 0 331 161q6 -34 6 -52q0 -90 -114.5 -160 t-296.5 -91l-15 -73q-21 -108 -21 -182l1 -31q-13 -2 -19 -2q-36 0 -68 22t-32 47q0 19 38 173q5 19 13 54q-346 79 -346 465zM557 652q0 -240 177 -341l173 872q-152 -48 -251 -198t-99 -333z" />
<glyph unicode="&#xa3;" d="M333 36q0 13 6 53q1 7 5 46l3 24q239 185 239 504l-2 77h-40q-115 0 -197 -35q29 85 63 109.5t125 24.5h43q-4 82 -4 109q0 229 177.5 399t417.5 170q170 0 170 -113q0 -56 -55 -133q-77 117 -222 117q-293 0 -293 -411q0 -17 5 -95q2 -23 2 -43h57q209 0 311 43 q-5 -17 -7 -25q-24 -84 -61.5 -100.5t-209.5 -16.5h-85q0 -319 -295 -570q308 34 495 34q175 0 228 -48t64 -214q-149 77 -429 77q-134 0 -257 -17l-84 -12q-30 -4 -53 -8q-36 -7 -53 -7q-64 0 -64 61z" />
<glyph unicode="&#xa4;" d="M133 168q0 86 309 297q-48 86 -48 201q0 164 132 329q-20 21 -101 111q-65 74 -153 117q61 54 119 54q91 0 221 -210q141 111 289 111q137 0 261 -99q233 235 307 235q60 0 110 -78q-139 -43 -351 -231q48 -93 48 -205q0 -166 -145 -342q167 -177 268 -213 q-66 -48 -119 -48q-62 0 -226 200q-138 -101 -287 -101q-135 0 -257 94q-242 -194 -329 -330q-48 70 -48 108zM542 661q0 -94 65 -155.5t164 -61.5q138 0 248 113t110 254q0 96 -64 157.5t-163 61.5q-142 0 -251 -111.5t-109 -257.5z" />
<glyph unicode="&#xa5;" d="M299 1500q105 73 159 73q192 0 450 -785q197 173 345.5 359t148.5 260q0 41 -33 72q85 38 134 38q82 0 82 -87q0 -97 -198 -325t-442 -413l-3 -13h50q276 0 362 21q-49 -81 -101 -101t-213 -20l-74 1h-43l-30 -148h27q219 0 326 35q-23 -146 -171 -146q-28 0 -75 2 q-57 4 -93 4h-34l-26 -130q-19 -94 -19 -123q0 -28 12 -60q-102 -51 -184 -51q-53 0 -53 42q0 22 21 125l39 197h-121q-145 0 -241 -37q51 148 177 148q33 0 77 -2q80 -4 99 -4h30l29 148h-33q-190 0 -274 -37q14 142 160 142q41 0 81 -3q56 -3 64 -3h22l2 13 q-61 273 -184.5 502t-251.5 306z" />
<glyph unicode="&#xa6;" horiz-adv-x="617" d="M194 -202q0 23 8 59l25 129l30 148q40 199 40 278q0 38 -10 79q161 -22 161 -110q0 -37 -46 -260l-27 -138q-26 -130 -26 -205q0 -32 7 -74q-162 0 -162 94zM421 911q0 23 8 59l26 128l29 149q41 198 41 279q0 37 -11 78q162 -22 162 -111q0 -35 -46 -259l-28 -138 q-26 -130 -26 -205q0 -32 8 -74q-163 0 -163 94z" />
<glyph unicode="&#xa7;" d="M296 -130q0 49 74 146q100 -213 299 -213q115 0 199 72.5t84 171.5q0 121 -219 239l-70 37q-22 13 -93 49q-198 103 -198 256q0 195 232 315q-96 79 -96 195q0 146 152 262.5t343 116.5q236 0 236 -124q0 -48 -59 -117q-71 130 -225 130q-119 0 -200.5 -65.5 t-81.5 -160.5q0 -90 177 -179l83 -43q303 -153 303 -354q0 -164 -199 -296q96 -95 96 -205q0 -155 -159.5 -277.5t-359.5 -122.5q-124 0 -221 51t-97 116zM533 690q0 -88 188 -188l86 -46q80 -42 150 -89q119 68 119 168q0 89 -65.5 149t-276.5 162q-15 7 -57 29 q-144 -87 -144 -185z" />
<glyph unicode="&#xa8;" d="M745 1358l3 36q2 15 2 30q0 17 -5 33h23q148 0 148 -55q0 -44 -18 -119q-36 2 -68 2q-85 0 -85 73zM1140 1356l4 37q1 13 1 29q0 18 -4 34h22q148 0 148 -55q0 -43 -18 -119q-32 2 -68 2q-85 0 -85 72z" />
<glyph unicode="&#xa9;" horiz-adv-x="1795" d="M227 670q0 206 98 363.5t270 225.5q31 259 510 259q330 0 545 -191t215 -486q0 -364 -265 -621t-641 -257q-314 0 -523 202t-209 505zM344 672q0 -261 175.5 -426.5t453.5 -165.5q325 0 554.5 218.5t229.5 528.5q0 258 -180.5 419t-470.5 161q-258 0 -430 -132q37 9 60 9 q57 0 57 -50q0 -48 -29 -100q-41 13 -76 13q-137 0 -240.5 -142.5t-103.5 -332.5zM643 594q0 222 182 403t403 181q184 0 184 -102q0 -47 -47 -112q-52 128 -198 128q-140 0 -257 -148t-117 -324q0 -213 227 -213q176 0 308 144l49 -54q-176 -201 -404 -201q-142 0 -236 85 t-94 213z" />
<glyph unicode="&#xaa;" horiz-adv-x="1332" d="M384 960q0 211 156 384t347 173q107 0 183 -60q64 54 151 54q33 0 72 -7q-97 -108 -148 -365l-7 -34q-10 -51 -10 -120q0 -140 81 -140q56 0 134 75v-22q0 -80 -56.5 -128t-149.5 -48q-187 0 -187 230q0 56 15 153q-200 -383 -402 -383q-179 0 -179 238zM550 1020 q0 -138 71 -138q107 0 388 453q-95 71 -184 71q-110 0 -192.5 -115.5t-82.5 -270.5z" />
<glyph unicode="&#xab;" horiz-adv-x="1592" d="M507 561q363 198 489 450q12 -9 18 -13q45 -31 45 -67q0 -108 -347 -419q42 -112 124 -187t162 -75h14q-63 -65 -122 -65q-194 0 -383 376zM1063 561q362 197 489 450q12 -9 19 -13q44 -31 44 -67q0 -108 -347 -419q42 -112 124 -187t162 -75h14q-63 -65 -122 -65 q-194 0 -383 376z" />
<glyph unicode="&#xac;" d="M309 826q0 25 7 66q124 -47 423 -47h204q268 0 341.5 -34t73.5 -158q0 -312 -222 -312h-22q68 92 68 224q0 79 -61 102.5t-265 23.5h-176q-243 0 -307 23.5t-64 111.5z" />
<glyph unicode="&#xad;" horiz-adv-x="973" d="M486 519q57 176 183 176q24 0 50 -3l109 -12q32 -3 62 -3q80 0 115 44q-30 -195 -140 -195q-25 0 -62 4l-74 9q-78 10 -121 10q-62 0 -122 -30z" />
<glyph unicode="&#xae;" d="M426 1051q0 199 138.5 332.5t344.5 133.5q189 0 318.5 -122.5t129.5 -301.5q0 -193 -138.5 -331.5t-329.5 -138.5q-198 0 -330.5 122.5t-132.5 305.5zM530 1053q0 -144 101.5 -237.5t256.5 -93.5t262 104t107 256q0 143 -103 240t-254 97q-153 0 -261.5 -107.5 t-108.5 -258.5zM694 876q0 8 24 129l58 296q101 31 157 31q164 0 164 -126q0 -110 -149 -165q80 -139 142 -176q-50 -39 -89 -39q-40 0 -63.5 32.5t-109.5 204.5l-15 -76q-15 -74 -15 -103q0 -27 18 -62h-23q-99 0 -99 54zM831 1080q164 16 164 106q0 61 -79 61 q-20 0 -54 -15z" />
<glyph unicode="&#xb0;" horiz-adv-x="605" d="M368 1285q0 167 195 278q19 -29 22 -59q189 -27 189 -153q0 -76 -71 -130.5t-170 -54.5q-165 0 -165 119zM469 1303q0 -45 60 -45q58 0 109 30.5t51 64.5q0 47 -125 90q-95 -90 -95 -140z" />
<glyph unicode="&#xb1;" d="M150 -54q51 217 287 217q58 0 152 -5l146 -8q107 -5 212 -5q160 0 261 46q-48 -203 -194 -203l-228 9l-184 7l-179 2q-153 0 -273 -60zM268 607q7 26 10 39q25 101 76 135t177 34l99 -1h146l8 41q33 165 33 248q0 31 -12 83q39 11 63 11q110 0 110 -89q0 -26 -37 -208 l-17 -86h72q289 0 408 66q-33 -134 -92 -174t-223 -40h-194l-12 -59q-28 -142 -28 -237q0 -29 12 -73q-29 -3 -42 -3q-130 0 -130 85q0 35 33 193l19 94h-139q-256 0 -340 -59z" />
<glyph unicode="&#xb2;" horiz-adv-x="839" d="M254 787q0 18 6 53q194 109 332 252t138 235q0 72 -96 72q-132 0 -256 -174q-21 78 -21 107q0 69 100.5 127t219.5 58q232 0 232 -161q0 -174 -404 -480q144 13 228 13q121 0 154 -32t43 -157q-114 49 -268 49q-116 0 -239 -16l-35 -5q-52 -7 -65 -7q-69 0 -69 66z" />
<glyph unicode="&#xb3;" horiz-adv-x="839" d="M279 834q0 23 9 86q106 -106 238 -106q81 0 136 40.5t55 101.5q0 80 -138 109q-32 -10 -65 -10q-62 0 -120 38q49 104 140 104q21 0 57 -5q152 41 152 144q0 83 -110 83q-89 0 -184 -113l-2 73q0 138 227 138q103 0 168 -45.5t65 -118.5q0 -112 -154 -201 q134 -70 134 -183q0 -110 -104 -185t-258 -75q-246 0 -246 125z" />
<glyph unicode="&#xb4;" d="M890 1283q48 42 83 83l47 57q83 98 136.5 130t135.5 32q71 0 125 -13q-81 -37 -180 -123l-41 -34q-153 -132 -306 -132z" />
<glyph unicode="&#xb5;" horiz-adv-x="1646" d="M214 -323q0 73 30 224l149 753q48 229 48 332q0 58 -35 94q119 30 166 30q76 0 76 -111q0 -66 -62 -375l-17 -81q-39 -184 -39 -241q0 -151 100 -151q154 0 385 349q254 382 254 536q0 23 -11 54q88 20 140 20q85 0 85 -53q0 -11 -60 -257q-6 -24 -14 -66l-21 -105 q-24 -119 -24 -260q0 -240 129 -240q65 0 173 85q-11 -125 -71.5 -179t-189.5 -54q-233 0 -233 388q0 125 11 237q-344 -631 -619 -631q-60 0 -104 22l-14 -71q-24 -122 -24 -219q0 -62 27 -105q-116 -34 -157 -34q-78 0 -78 109z" />
<glyph unicode="&#xb6;" d="M376 985q0 170 129 300t339 171l7 36q6 26 6 56q0 76 -35 113q13 2 20 3q36 8 56 8q68 0 68 -69q0 -34 -15 -106l-5 -27q48 5 81 5l74 -2l5 28q7 33 7 58q0 40 -18 83q32 5 55 5q78 0 78 -54q0 -21 -14 -66q-10 -30 -11 -37l-4 -20q239 -41 239 -149q0 -43 -34 -94 q-67 112 -225 144l-130 -655q128 13 225 79q0 -89 -52.5 -128.5t-193.5 -55.5l-83 -416q-31 -155 -31 -233q0 -68 26 -136q-136 11 -136 100q0 57 37 240l88 445q-28 -2 -40 -2q-30 0 -81 9q-10 1 -31 4l-95 -481q-48 -237 -48 -368q0 -26 8 -63q-23 -4 -35 -4q-93 0 -93 62 q0 27 64 350l105 526q-307 89 -307 341zM532 1016q0 -163 176 -244l115 576q-291 -107 -291 -332zM800 739q72 -19 150 -25l133 668q-75 0 -157 -12z" />
<glyph unicode="&#xb8;" d="M446 -283q56 -19 90 -19q113 0 113 74q0 63 -147 86l113 142h102l-77 -95q141 -34 141 -122q0 -68 -65 -123t-145 -55q-118 0 -125 112z" />
<glyph unicode="&#xb9;" horiz-adv-x="839" d="M275 850q56 -30 97 -30q29 0 94 9l129 556q-58 -3 -80 -3q-72 0 -101.5 35.5t-47.5 143.5q79 -62 146 -62q72 0 282 23l-152 -669q34 4 60 4q99 0 127.5 -30.5t28.5 -137.5q-57 39 -109 39q-56 0 -136 -9l-83 -8q-129 -14 -151 -14q-89 0 -104 153z" />
<glyph unicode="&#xba;" horiz-adv-x="1332" d="M462 958q0 149 81.5 269.5t210.5 162.5q54 128 246 128q120 0 190 -62t70 -169q0 -215 -168 -393.5t-371 -178.5q-259 0 -259 243zM640 1018q0 -185 154 -185q107 0 198 124t91 271q0 179 -155 179q-36 0 -88 -26q80 -34 80 -127q-44 29 -86 29q-77 0 -135.5 -80 t-58.5 -185z" />
<glyph unicode="&#xbb;" horiz-adv-x="1592" d="M505 169q0 123 331 381q-201 192 -201 331q0 43 42 82q118 -257 402 -428q-379 -194 -514 -467q-60 47 -60 101zM1061 169q0 123 331 381q-201 191 -201 331q0 43 42 82q118 -257 402 -428q-380 -194 -514 -467q-60 47 -60 101z" />
<glyph unicode="&#xbc;" horiz-adv-x="2011" d="M333 850q56 -30 97 -30q29 0 94 9l129 556q-58 -3 -80 -3q-72 0 -101.5 35.5t-47.5 143.5q79 -62 146 -62q72 0 282 23l-152 -669q34 4 60 4q99 0 127.5 -30.5t28.5 -137.5q-57 39 -109 39q-56 0 -136 -9l-83 -8q-129 -14 -151 -14q-89 0 -104 153zM506 -56 q0 150 520 756l111 129q309 362 561 604q173 165 314 165q59 0 135 -28q-355 -194 -814 -738l-70 -82q-309 -367 -461.5 -596t-174.5 -360q-121 60 -121 150zM1157 188l23 130q208 232 267 435q73 18 107 18q54 0 54 -39q0 -87 -252 -374q182 22 234 22l46 190q8 34 8 58 q0 15 -12 43q71 19 100 19q79 0 79 -55q0 -29 -19 -111l-32 -143q118 0 163.5 -23.5t52.5 -88.5l9 -80q-120 53 -256 53l-24 -105q-12 -52 -12 -84q0 -27 23 -60q-77 -30 -117 -30q-81 0 -81 96q0 19 15 80l24 102q-257 -23 -400 -53z" />
<glyph unicode="&#xbd;" horiz-adv-x="2011" d="M345 850q56 -30 97 -30q29 0 94 9l129 556q-58 -3 -80 -3q-72 0 -101.5 35.5t-47.5 143.5q79 -62 146 -62q72 0 282 23l-152 -669q34 4 60 4q99 0 127.5 -30.5t28.5 -137.5q-57 39 -109 39q-56 0 -136 -9l-83 -8q-129 -14 -151 -14q-89 0 -104 153zM518 -56 q0 150 520 756l111 129q309 362 561 604q173 165 314 165q59 0 135 -28q-355 -194 -814 -738l-70 -82q-309 -367 -461.5 -596t-174.5 -360q-121 60 -121 150zM1287 39q0 17 5 53q194 108 332 251t138 235q0 72 -96 72q-131 0 -256 -173q-20 77 -20 106q0 69 100.5 127.5 t218.5 58.5q233 0 233 -162q0 -173 -404 -480q142 13 228 13q121 0 154 -31.5t43 -157.5q-115 49 -268 49q-116 0 -240 -16l-34 -4q-52 -7 -65 -7q-69 0 -69 66z" />
<glyph unicode="&#xbe;" horiz-adv-x="2011" d="M382 834q0 23 9 86q106 -106 238 -106q81 0 136 40.5t55 101.5q0 80 -138 109q-32 -10 -65 -10q-62 0 -120 38q49 104 140 104q21 0 57 -5q152 41 152 144q0 83 -110 83q-89 0 -184 -113l-2 73q0 138 227 138q103 0 168 -45.5t65 -118.5q0 -112 -154 -201 q134 -70 134 -183q0 -110 -104 -185t-258 -75q-246 0 -246 125zM470 -56q0 150 520 756l111 129q308 362 561 604q173 165 314 165q58 0 134 -28q-356 -195 -814 -738l-69 -82q-313 -372 -463.5 -598t-173.5 -358q-120 60 -120 150zM1145 188l23 130q207 232 268 435 q72 18 106 18q55 0 55 -39q0 -87 -253 -374q182 22 235 22l45 190q8 35 8 54q0 16 -12 47q71 19 101 19q78 0 78 -54q0 -29 -19 -112l-32 -143q119 0 164 -23.5t52 -88.5l9 -80q-120 53 -256 53l-24 -105q-11 -51 -11 -84q0 -27 23 -60q-77 -30 -118 -30q-80 0 -80 95 q0 21 14 81l24 102q-256 -23 -400 -53z" />
<glyph unicode="&#xbf;" horiz-adv-x="1135" d="M253 -152q0 189 263 391l37 29q224 172 224 339q0 42 -24 87q34 22 83 22q122 0 122 -105q0 -144 -215 -321l-45 -37q-242 -199 -242 -355q0 -188 203 -188q208 0 362 243q21 -34 21 -78q0 -108 -154.5 -207.5t-322.5 -99.5q-146 0 -229 74.5t-83 205.5zM730 909 q0 36 10 87l14 67l45 8q98 19 117 19q71 0 71 -73q0 -20 -4 -41l-5 -25q-3 -18 -3 -38q0 -40 20 -68l-72 -13q-74 -15 -106 -15q-87 0 -87 92z" />
<glyph unicode="&#xc0;" horiz-adv-x="1560" d="M72 454q47 169 253 169l124 -3l27 40q157 236 480 635q109 135 163 168t209 60q-29 -180 -29 -335q0 -411 95 -833q52 -232 159 -299q-94 -93 -161 -93q-158 0 -244 542q-165 -18 -333 -18l-273 5l-20 -38q-126 -235 -126 -364q0 -38 29 -74q-24 -8 -108 -39 q-39 -14 -74 -14q-70 0 -70 67q0 139 173 424l31 51h-51q-164 0 -254 -51zM614 610l202 -5q207 0 317 14q-46 351 -46 582l1 75q-33 -42 -148 -182q-208 -255 -305 -445zM1002 1869q-3 54 166 95q61 -215 205 -360q-22 -2 -34 -2q-118 0 -235 123q-100 106 -102 144z" />
<glyph unicode="&#xc1;" horiz-adv-x="1560" d="M72 454q47 169 253 169l124 -3l27 40q157 236 480 635q109 135 163 168t209 60q-29 -180 -29 -335q0 -411 95 -833q52 -232 159 -299q-94 -93 -161 -93q-158 0 -244 542q-165 -18 -333 -18l-273 5l-20 -38q-126 -235 -126 -364q0 -38 29 -74q-24 -8 -108 -39 q-39 -14 -74 -14q-70 0 -70 67q0 139 173 424l31 51h-51q-164 0 -254 -51zM614 610l202 -5q207 0 317 14q-46 351 -46 582l1 75q-33 -42 -148 -182q-208 -255 -305 -445zM1044 1604q48 42 83 83l47 57q83 98 136.5 130t135.5 32q71 0 125 -13q-81 -37 -180 -123l-41 -34 q-153 -132 -306 -132z" />
<glyph unicode="&#xc2;" horiz-adv-x="1560" d="M72 454q47 169 253 169l124 -3l27 40q157 236 480 635q109 135 163 168t209 60q-29 -180 -29 -335q0 -411 95 -833q52 -232 159 -299q-94 -93 -161 -93q-158 0 -244 542q-165 -18 -333 -18l-273 5l-20 -38q-126 -235 -126 -364q0 -38 29 -74q-24 -8 -108 -39 q-39 -14 -74 -14q-70 0 -70 67q0 139 173 424l31 51h-51q-164 0 -254 -51zM614 610l202 -5q207 0 317 14q-46 351 -46 582l1 75q-33 -42 -148 -182q-208 -255 -305 -445zM838 1618q173 116 240 171l35 29q101 84 260 108q33 -200 135 -322q-103 0 -149 32.5t-114 152.5 q-202 -185 -329 -185q-31 0 -78 14z" />
<glyph unicode="&#xc3;" horiz-adv-x="1560" d="M72 454q47 169 253 169l124 -3l27 40q157 236 480 635q109 135 163 168t209 60q-29 -180 -29 -335q0 -411 95 -833q52 -232 159 -299q-94 -93 -161 -93q-158 0 -244 542q-165 -18 -333 -18l-273 5l-20 -38q-126 -235 -126 -364q0 -38 29 -74q-24 -8 -108 -39 q-39 -14 -74 -14q-70 0 -70 67q0 139 173 424l31 51h-51q-164 0 -254 -51zM614 610l202 -5q207 0 317 14q-46 351 -46 582l1 75q-33 -42 -148 -182q-208 -255 -305 -445zM937 1673q0 60 65 112.5t139 52.5q62 0 119 -34l29 -19q54 -33 91 -33q80 0 90 108q85 -24 85 -83 q0 -62 -65 -117.5t-138 -55.5q-47 0 -136 52l-39 23q-40 24 -78 24q-73 0 -73 -92v-19q-89 27 -89 81z" />
<glyph unicode="&#xc4;" horiz-adv-x="1560" d="M72 454q47 169 253 169l124 -3l27 40q157 236 480 635q109 135 163 168t209 60q-29 -180 -29 -335q0 -411 95 -833q52 -232 159 -299q-94 -93 -161 -93q-158 0 -244 542q-165 -18 -333 -18l-273 5l-20 -38q-126 -235 -126 -364q0 -38 29 -74q-24 -8 -108 -39 q-39 -14 -74 -14q-70 0 -70 67q0 139 173 424l31 51h-51q-164 0 -254 -51zM614 610l202 -5q207 0 317 14q-46 351 -46 582l1 75q-33 -42 -148 -182q-208 -255 -305 -445zM963 1679l3 36q2 15 2 30q0 17 -5 33h23q148 0 148 -55q0 -44 -18 -119q-36 2 -68 2q-85 0 -85 73z M1358 1677l4 37q1 13 1 29q0 18 -4 34h22q148 0 148 -55q0 -43 -18 -119q-32 2 -68 2q-85 0 -85 72z" />
<glyph unicode="&#xc5;" horiz-adv-x="1560" d="M72 454q47 169 253 169l124 -3l27 43q121 197 423 562q74 90 115 143q40 51 80 77q-109 40 -109 122q0 69 75 144t178 111q9 -29 9 -45q0 -8 -1 -20q158 -52 158 -160q0 -86 -85 -136q-21 -131 -21 -253q0 -155 31 -430.5t64 -423.5q53 -231 160 -298q-94 -93 -161 -93 q-158 0 -244 542q-165 -18 -333 -18l-273 5l-20 -38q-126 -235 -126 -364q0 -38 29 -74q-24 -8 -108 -39q-39 -14 -74 -14q-70 0 -70 67q0 139 173 424l31 51h-51q-164 0 -254 -51zM614 610l202 -5q207 0 317 14q-46 351 -46 582l1 75q-33 -42 -148 -182 q-208 -255 -305 -445zM1091 1573q0 -50 89 -50q138 0 138 74q0 41 -104 103q-123 -75 -123 -127z" />
<glyph unicode="&#xc6;" horiz-adv-x="1927" d="M89 601q40 125 89.5 147.5t282.5 22.5h55q622 759 765 759q51 0 111 -50h306q244 0 453 53q-67 -108 -127 -142.5t-181 -34.5l-94 1h-325l-117 -586h207q194 0 346 59q-58 -119 -112.5 -144.5t-254.5 -25.5h-208l-34 -174q-35 -178 -35 -243q0 -126 261 -126 q237 0 449 93q-52 -148 -155 -183q-192 -65 -460 -65q-320 0 -320 208q0 72 33 230l52 260h-473q-257 -391 -257 -585q0 -28 20 -59q-122 -53 -179 -53q-74 0 -74 71q0 175 318 626h-41q-175 0 -301 -59zM682 771h416l116 586q-234 -194 -532 -586z" />
<glyph unicode="&#xc7;" horiz-adv-x="1450" d="M229 516q0 412 267.5 706.5t641.5 294.5q152 0 256 -54t104 -132q0 -70 -90 -154q-121 242 -343 242q-243 0 -424 -252.5t-181 -589.5q0 -215 108.5 -340.5t293.5 -125.5q316 0 580 301q20 -42 20 -68q0 -117 -185.5 -234.5t-410.5 -143.5l-52 -63q144 -30 144 -119 q0 -68 -65 -123.5t-146 -55.5q-124 0 -124 110q50 -19 94 -19q109 0 109 75q0 60 -148 86l83 105q-260 16 -396 157.5t-136 396.5z" />
<glyph unicode="&#xc8;" horiz-adv-x="1270" d="M185 1239q50 160 137 206q68 35 419 35h298q282 0 458 56q-79 -125 -140.5 -152t-266.5 -27h-323l-99 -493h207q217 0 346 55q-68 -127 -121 -153t-249 -26h-207l-51 -257q-32 -160 -32 -227q0 -133 258 -133q256 0 451 91q-45 -150 -149 -185q-63 -21 -219 -43.5 t-240 -22.5q-327 0 -327 217q0 58 32 223l67 337h-15q-101 0 -196 -44q55 108 90.5 138t112.5 30h33l98 493h-29q-185 0 -343 -118zM771 1869q-3 54 166 95q61 -215 205 -360q-22 -2 -34 -2q-118 0 -235 123q-100 106 -102 144z" />
<glyph unicode="&#xc9;" horiz-adv-x="1270" d="M185 1239q50 160 137 206q68 35 419 35h298q282 0 458 56q-79 -125 -140.5 -152t-266.5 -27h-323l-99 -493h207q217 0 346 55q-68 -127 -121 -153t-249 -26h-207l-51 -257q-32 -160 -32 -227q0 -133 258 -133q256 0 451 91q-45 -150 -149 -185q-63 -21 -219 -43.5 t-240 -22.5q-327 0 -327 217q0 58 32 223l67 337h-15q-101 0 -196 -44q55 108 90.5 138t112.5 30h33l98 493h-29q-185 0 -343 -118zM814 1604q48 42 83 83l47 57q83 98 136.5 130t135.5 32q71 0 125 -13q-81 -37 -180 -123l-41 -34q-153 -132 -306 -132z" />
<glyph unicode="&#xca;" horiz-adv-x="1270" d="M185 1239q50 160 137 206q68 35 419 35h298q282 0 458 56q-79 -125 -140.5 -152t-266.5 -27h-323l-99 -493h207q217 0 346 55q-68 -127 -121 -153t-249 -26h-207l-51 -257q-32 -160 -32 -227q0 -133 258 -133q256 0 451 91q-45 -150 -149 -185q-63 -21 -219 -43.5 t-240 -22.5q-327 0 -327 217q0 58 32 223l67 337h-15q-101 0 -196 -44q55 108 90.5 138t112.5 30h33l98 493h-29q-185 0 -343 -118zM632 1618q173 116 240 171l35 29q101 84 260 108q33 -200 135 -322q-103 0 -149 32.5t-114 152.5q-202 -185 -329 -185q-31 0 -78 14z" />
<glyph unicode="&#xcb;" horiz-adv-x="1270" d="M185 1239q50 160 137 206q68 35 419 35h298q282 0 458 56q-79 -125 -140.5 -152t-266.5 -27h-323l-99 -493h207q217 0 346 55q-68 -127 -121 -153t-249 -26h-207l-51 -257q-32 -160 -32 -227q0 -133 258 -133q256 0 451 91q-45 -150 -149 -185q-63 -21 -219 -43.5 t-240 -22.5q-327 0 -327 217q0 58 32 223l67 337h-15q-101 0 -196 -44q55 108 90.5 138t112.5 30h33l98 493h-29q-185 0 -343 -118zM683 1679l3 36q2 15 2 30q0 17 -5 33h23q148 0 148 -55q0 -44 -18 -119q-36 2 -68 2q-85 0 -85 73zM1078 1677l4 37q1 13 1 29q0 18 -4 34 h22q148 0 148 -55q0 -43 -18 -119q-32 2 -68 2q-85 0 -85 72z" />
<glyph unicode="&#xcc;" horiz-adv-x="1117" d="M171 124q71 -39 148 -39q42 0 140 15l248 1244q-108 -18 -187 -18q-138 0 -138 162q39 -26 98 -26q72 0 210 26l158 30q165 30 252 30q135 0 156 -181q-56 27 -117 27q-77 0 -173 -14q-15 -3 -44 -6l-247 -1243q191 25 271 25q130 0 130 -181q-73 25 -154 25 q-78 0 -191 -15l-228 -30q-122 -17 -171 -17q-84 0 -119 40t-42 146zM594 1869q-3 54 166 95q61 -215 205 -360q-22 -2 -34 -2q-118 0 -235 123q-100 106 -102 144z" />
<glyph unicode="&#xcd;" horiz-adv-x="1117" d="M171 124q71 -39 148 -39q42 0 140 15l248 1244q-108 -18 -187 -18q-138 0 -138 162q39 -26 98 -26q72 0 210 26l158 30q165 30 252 30q135 0 156 -181q-56 27 -117 27q-77 0 -173 -14q-15 -3 -44 -6l-247 -1243q191 25 271 25q130 0 130 -181q-73 25 -154 25 q-78 0 -191 -15l-228 -30q-122 -17 -171 -17q-84 0 -119 40t-42 146zM662 1604q48 42 83 83l47 57q83 98 136.5 130t135.5 32q71 0 125 -13q-81 -37 -180 -123l-41 -34q-153 -132 -306 -132z" />
<glyph unicode="&#xce;" horiz-adv-x="1117" d="M171 124q71 -39 148 -39q42 0 140 15l248 1244q-108 -18 -187 -18q-138 0 -138 162q39 -26 98 -26q72 0 210 26l158 30q165 30 252 30q135 0 156 -181q-56 27 -117 27q-77 0 -173 -14q-15 -3 -44 -6l-247 -1243q191 25 271 25q130 0 130 -181q-73 25 -154 25 q-78 0 -191 -15l-228 -30q-122 -17 -171 -17q-84 0 -119 40t-42 146zM480 1618q173 116 240 171l35 29q101 84 260 108q33 -200 135 -322q-103 0 -149 32.5t-114 152.5q-202 -185 -329 -185q-31 0 -78 14z" />
<glyph unicode="&#xcf;" horiz-adv-x="1117" d="M171 124q71 -39 148 -39q42 0 140 15l248 1244q-108 -18 -187 -18q-138 0 -138 162q39 -26 98 -26q72 0 210 26l158 30q165 30 252 30q135 0 156 -181q-56 27 -117 27q-77 0 -173 -14q-15 -3 -44 -6l-247 -1243q191 25 271 25q130 0 130 -181q-73 25 -154 25 q-78 0 -191 -15l-228 -30q-122 -17 -171 -17q-84 0 -119 40t-42 146zM556 1679l3 36q2 15 2 30q0 17 -5 33h23q148 0 148 -55q0 -44 -18 -119q-36 2 -68 2q-85 0 -85 73zM951 1677l4 37q1 13 1 29q0 18 -4 34h22q148 0 148 -55q0 -43 -18 -119q-32 2 -68 2q-85 0 -85 72z " />
<glyph unicode="&#xd0;" horiz-adv-x="1777" d="M171 1052q0 180 275 322.5t623 142.5q366 0 576.5 -162t210.5 -444q0 -375 -327 -661q-173 -151 -432.5 -247t-496.5 -96q-228 0 -228 171q0 62 39 255l60 302h-31q-134 0 -255 -33q17 29 26 44q35 61 67 78t108 17l83 -1h23l49 247q17 84 17 121q0 35 -24 64 q133 50 185 50q62 0 62 -72q0 -18 -30 -163l-49 -247h17q178 0 354 34q-32 -95 -65 -120t-127 -25q-39 0 -83 2q-77 4 -90 4h-27l-41 -207q-41 -209 -41 -263q0 -60 40.5 -81.5t152.5 -21.5q363 0 608 221t245 548q0 253 -178 405t-474 152q-241 0 -449.5 -116t-348.5 -327 q-24 52 -24 107z" />
<glyph unicode="&#xd1;" horiz-adv-x="1667" d="M261 66q0 98 119 609l149 638l-29 78q-59 159 -148 191q154 71 194 71q67 0 100.5 -62.5t294.5 -679.5q293 -693 386 -693q69 0 134.5 294.5t65.5 605.5q0 250 -119 329q98 70 177 70q119 0 119 -194q0 -154 -53.5 -472t-115.5 -535q-102 -353 -227 -353 q-108 0 -231.5 190.5t-329.5 673.5q-67 156 -91 209l-33 72l-127 -640q-36 -182 -36 -275q0 -139 79 -195q-91 -35 -166 -35q-112 0 -112 103zM849 1673q0 60 65 112.5t139 52.5q62 0 119 -34l29 -19q54 -33 91 -33q80 0 90 108q85 -24 85 -83q0 -62 -65 -117.5t-138 -55.5 q-47 0 -136 52l-39 23q-40 24 -78 24q-73 0 -73 -92v-19q-89 27 -89 81z" />
<glyph unicode="&#xd2;" horiz-adv-x="1770" d="M244 583q0 292 196.5 503t479.5 224q155 207 409 207q217 0 358 -157.5t141 -399.5q0 -377 -303 -687t-671 -310q-265 0 -437.5 175.5t-172.5 444.5zM460 646q0 -241 140 -397.5t357 -156.5q260 0 459 246t199 569q0 188 -99 316t-244 128q-147 0 -255 -119.5 t-108 -283.5q0 -116 55 -214q-109 20 -145.5 59t-36.5 138q0 129 62 270q-178 -43 -281 -191t-103 -364zM979 1869q-3 54 166 95q61 -215 205 -360q-22 -2 -34 -2q-118 0 -235 123q-100 106 -102 144z" />
<glyph unicode="&#xd3;" horiz-adv-x="1770" d="M244 583q0 292 196.5 503t479.5 224q155 207 409 207q217 0 358 -157.5t141 -399.5q0 -377 -303 -687t-671 -310q-265 0 -437.5 175.5t-172.5 444.5zM460 646q0 -241 140 -397.5t357 -156.5q260 0 459 246t199 569q0 188 -99 316t-244 128q-147 0 -255 -119.5 t-108 -283.5q0 -116 55 -214q-109 20 -145.5 59t-36.5 138q0 129 62 270q-178 -43 -281 -191t-103 -364zM1034 1604q48 42 83 83l47 57q83 98 136.5 130t135.5 32q71 0 125 -13q-81 -37 -180 -123l-41 -34q-153 -132 -306 -132z" />
<glyph unicode="&#xd4;" horiz-adv-x="1770" d="M244 583q0 292 196.5 503t479.5 224q155 207 409 207q217 0 358 -157.5t141 -399.5q0 -377 -303 -687t-671 -310q-265 0 -437.5 175.5t-172.5 444.5zM460 646q0 -241 140 -397.5t357 -156.5q260 0 459 246t199 569q0 188 -99 316t-244 128q-147 0 -255 -119.5 t-108 -283.5q0 -116 55 -214q-109 20 -145.5 59t-36.5 138q0 129 62 270q-178 -43 -281 -191t-103 -364zM864 1618q173 116 240 171l35 29q101 84 260 108q33 -200 135 -322q-103 0 -149 32.5t-114 152.5q-202 -185 -329 -185q-31 0 -78 14z" />
<glyph unicode="&#xd5;" horiz-adv-x="1770" d="M244 583q0 292 196.5 503t479.5 224q155 207 409 207q217 0 358 -157.5t141 -399.5q0 -377 -303 -687t-671 -310q-265 0 -437.5 175.5t-172.5 444.5zM460 646q0 -241 140 -397.5t357 -156.5q260 0 459 246t199 569q0 188 -99 316t-244 128q-147 0 -255 -119.5 t-108 -283.5q0 -116 55 -214q-109 20 -145.5 59t-36.5 138q0 129 62 270q-178 -43 -281 -191t-103 -364zM915 1673q0 60 65 112.5t139 52.5q62 0 119 -34l29 -19q54 -33 91 -33q80 0 90 108q85 -24 85 -83q0 -62 -65 -117.5t-138 -55.5q-47 0 -136 52l-39 23q-40 24 -78 24 q-73 0 -73 -92v-19q-89 27 -89 81z" />
<glyph unicode="&#xd6;" horiz-adv-x="1770" d="M244 583q0 292 196.5 503t479.5 224q155 207 409 207q217 0 358 -157.5t141 -399.5q0 -377 -303 -687t-671 -310q-265 0 -437.5 175.5t-172.5 444.5zM460 646q0 -241 140 -397.5t357 -156.5q260 0 459 246t199 569q0 188 -99 316t-244 128q-147 0 -255 -119.5 t-108 -283.5q0 -116 55 -214q-109 20 -145.5 59t-36.5 138q0 129 62 270q-178 -43 -281 -191t-103 -364zM916 1679l3 36q2 15 2 30q0 17 -5 33h23q148 0 148 -55q0 -44 -18 -119q-36 2 -68 2q-85 0 -85 73zM1311 1677l4 37q1 13 1 29q0 18 -4 34h22q148 0 148 -55 q0 -43 -18 -119q-32 2 -68 2q-85 0 -85 72z" />
<glyph unicode="&#xd7;" d="M275 176q0 131 474 458q-138 177 -221 235t-202 58q45 153 121 153q74 0 194.5 -102t228.5 -257q205 147 278 219.5t122 178.5q125 -49 125 -108q0 -114 -439 -410q63 -87 119 -171q90 -135 136.5 -178.5t121.5 -59.5q-67 -93 -164 -93q-63 0 -97 42t-236 371 q-369 -266 -435 -464q-126 70 -126 128z" />
<glyph unicode="&#xd8;" horiz-adv-x="1764" d="M250 589q0 285 203 502.5t470 217.5q161 208 403 208q135 0 218 -47q158 196 254 196q65 0 137 -59q-131 -55 -281 -214q174 -170 174 -428q0 -380 -299.5 -691t-665.5 -311q-128 0 -271 61q-100 -190 -100 -275q0 -22 6 -48q-150 15 -150 91t147 286q-245 177 -245 511z M459 652q0 -240 148 -410q438 658 795 1064q-66 27 -128 27q-133 0 -227.5 -92.5t-94.5 -221.5q0 -18 1 -41q-118 19 -118 111q0 52 28 113q-188 -43 -296 -189.5t-108 -360.5zM689 173q140 -80 266 -80q259 0 459.5 248t200.5 568q0 189 -115 331q-191 -198 -426 -507.5 t-385 -559.5z" />
<glyph unicode="&#xd9;" horiz-adv-x="1743" d="M227 1546q75 -59 194 -59q68 0 454 35q-353 -690 -353 -1053q0 -130 64.5 -213t165.5 -83q142 0 281.5 139.5t262.5 404.5q88 487 156.5 599t276.5 112q-91 -117 -180 -488.5t-89 -634.5q0 -207 126 -207q79 0 186 85q4 -24 4 -36q0 -68 -82 -126t-178 -58 q-269 0 -269 342q0 48 10 140q-301 -433 -591 -433q-157 0 -259 114.5t-102 290.5q0 353 274 937q-83 -16 -154 -16q-93 0 -137 46.5t-61 161.5zM981 1869q-3 54 166 95q61 -215 205 -360q-22 -2 -34 -2q-118 0 -235 123q-100 106 -102 144z" />
<glyph unicode="&#xda;" horiz-adv-x="1743" d="M227 1546q75 -59 194 -59q68 0 454 35q-353 -690 -353 -1053q0 -130 64.5 -213t165.5 -83q142 0 281.5 139.5t262.5 404.5q88 487 156.5 599t276.5 112q-91 -117 -180 -488.5t-89 -634.5q0 -207 126 -207q79 0 186 85q4 -24 4 -36q0 -68 -82 -126t-178 -58 q-269 0 -269 342q0 48 10 140q-301 -433 -591 -433q-157 0 -259 114.5t-102 290.5q0 353 274 937q-83 -16 -154 -16q-93 0 -137 46.5t-61 161.5zM1073 1604q48 42 83 83l47 57q83 98 136.5 130t135.5 32q71 0 125 -13q-81 -37 -180 -123l-41 -34q-153 -132 -306 -132z" />
<glyph unicode="&#xdb;" horiz-adv-x="1743" d="M227 1546q75 -59 194 -59q68 0 454 35q-353 -690 -353 -1053q0 -130 64.5 -213t165.5 -83q142 0 281.5 139.5t262.5 404.5q88 487 156.5 599t276.5 112q-91 -117 -180 -488.5t-89 -634.5q0 -207 126 -207q79 0 186 85q4 -24 4 -36q0 -68 -82 -126t-178 -58 q-269 0 -269 342q0 48 10 140q-301 -433 -591 -433q-157 0 -259 114.5t-102 290.5q0 353 274 937q-83 -16 -154 -16q-93 0 -137 46.5t-61 161.5zM854 1618q173 116 240 171l35 29q101 84 260 108q33 -200 135 -322q-103 0 -149 32.5t-114 152.5q-202 -185 -329 -185 q-31 0 -78 14z" />
<glyph unicode="&#xdc;" horiz-adv-x="1743" d="M227 1546q75 -59 194 -59q68 0 454 35q-353 -690 -353 -1053q0 -130 64.5 -213t165.5 -83q142 0 281.5 139.5t262.5 404.5q88 487 156.5 599t276.5 112q-91 -117 -180 -488.5t-89 -634.5q0 -207 126 -207q79 0 186 85q4 -24 4 -36q0 -68 -82 -126t-178 -58 q-269 0 -269 342q0 48 10 140q-301 -433 -591 -433q-157 0 -259 114.5t-102 290.5q0 353 274 937q-83 -16 -154 -16q-93 0 -137 46.5t-61 161.5zM905 1679l3 36q2 15 2 30q0 17 -5 33h23q148 0 148 -55q0 -44 -18 -119q-36 2 -68 2q-85 0 -85 73zM1300 1677l4 37q1 13 1 29 q0 18 -4 34h22q148 0 148 -55q0 -43 -18 -119q-32 2 -68 2q-85 0 -85 72z" />
<glyph unicode="&#xdd;" horiz-adv-x="1196" d="M157 1500q105 73 159 73q192 0 450 -785q197 173 345.5 359t148.5 260q0 41 -33 72q85 38 134 38q82 0 82 -87q0 -97 -198 -325t-442 -413l-98 -495q-19 -94 -19 -123q0 -28 12 -60q-102 -51 -184 -51q-53 0 -53 42q0 22 21 125l111 562q-61 273 -184.5 502t-251.5 306z M723 1604q48 42 83 83l47 57q83 98 136.5 130t135.5 32q71 0 125 -13q-81 -37 -180 -123l-41 -34q-153 -132 -306 -132z" />
<glyph unicode="&#xde;" horiz-adv-x="1406" d="M168 872q0 89 121 184t309 153l37 185q17 85 17 121q0 35 -24 64q132 50 185 50q62 0 62 -71q0 -19 -33 -176l-24 -121q118 16 222 16q220 0 344.5 -91t124.5 -251q0 -276 -247 -463t-612 -187h-26l-37 -186q-19 -96 -19 -123q0 -28 13 -61q-103 -51 -186 -51 q-52 0 -52 42q0 22 21 125l55 277q-107 18 -178 65t-71 102q0 21 9 54q112 -87 259 -126l135 678q-230 -108 -375 -310q-30 63 -30 101zM643 382q313 16 487 149.5t174 357.5q0 123 -99 197t-263 74q-67 0 -146 -10z" />
<glyph unicode="&#xdf;" horiz-adv-x="1271" d="M201 -338q0 73 33 239l242 1217q59 299 221.5 466.5t394.5 167.5q107 0 184.5 -72t77.5 -171q0 -140 -205 -307l-58 -47q-130 -106 -130 -168q0 -78 160 -235l58 -57q198 -196 198 -353q0 -147 -128.5 -257t-302.5 -110q-107 0 -192 48t-85 109q0 56 85 133 q22 -86 84.5 -138.5t142.5 -52.5q96 0 156 60.5t60 155.5q0 115 -146 267l-84 88q-177 185 -177 278q0 95 148 226l45 41q177 157 177 278q0 71 -44.5 119t-111.5 48q-124 0 -200.5 -123.5t-135.5 -418.5l-232 -1167q-25 -125 -25 -218q0 -58 26 -106q-102 -34 -154 -34 q-82 0 -82 94z" />
<glyph unicode="&#xe0;" horiz-adv-x="1621" d="M247 321q0 313 189.5 551t438.5 238q151 0 327 -94q26 93 212 93q12 0 39 -1q-57 -87 -87 -238l-17 -85q-29 -142 -29 -332q0 -219 102 -219q108 0 295.5 180.5t368.5 459.5l78 -54q-185 -330 -423 -550.5t-409 -220.5q-216 0 -216 360q0 75 6 202 q-128 -265 -315.5 -450.5t-326.5 -185.5q-106 0 -169.5 94.5t-63.5 251.5zM449 368q0 -202 132 -202q143 0 547 628q5 8 41 56q-210 137 -349 137q-151 0 -261 -183.5t-110 -435.5zM850 1548q-3 54 166 95q61 -215 205 -360q-22 -2 -34 -2q-118 0 -235 123 q-100 106 -102 144z" />
<glyph unicode="&#xe1;" horiz-adv-x="1621" d="M247 321q0 313 189.5 551t438.5 238q151 0 327 -94q26 93 212 93q12 0 39 -1q-57 -87 -87 -238l-17 -85q-29 -142 -29 -332q0 -219 102 -219q108 0 295.5 180.5t368.5 459.5l78 -54q-185 -330 -423 -550.5t-409 -220.5q-216 0 -216 360q0 75 6 202 q-128 -265 -315.5 -450.5t-326.5 -185.5q-106 0 -169.5 94.5t-63.5 251.5zM449 368q0 -202 132 -202q143 0 547 628q5 8 41 56q-210 137 -349 137q-151 0 -261 -183.5t-110 -435.5zM917 1283q48 42 83 83l47 57q83 98 136.5 130t135.5 32q71 0 125 -13q-81 -37 -180 -123 l-41 -34q-153 -132 -306 -132z" />
<glyph unicode="&#xe2;" horiz-adv-x="1621" d="M247 321q0 313 189.5 551t438.5 238q151 0 327 -94q26 93 212 93q12 0 39 -1q-57 -87 -87 -238l-17 -85q-29 -142 -29 -332q0 -219 102 -219q108 0 295.5 180.5t368.5 459.5l78 -54q-185 -330 -423 -550.5t-409 -220.5q-216 0 -216 360q0 75 6 202 q-128 -265 -315.5 -450.5t-326.5 -185.5q-106 0 -169.5 94.5t-63.5 251.5zM449 368q0 -202 132 -202q143 0 547 628q5 8 41 56q-210 137 -349 137q-151 0 -261 -183.5t-110 -435.5zM723 1297q173 116 240 171l35 29q101 84 260 108q33 -200 135 -322q-103 0 -149 32.5 t-114 152.5q-202 -185 -329 -185q-31 0 -78 14z" />
<glyph unicode="&#xe3;" horiz-adv-x="1621" d="M247 321q0 313 189.5 551t438.5 238q151 0 327 -94q26 93 212 93q12 0 39 -1q-57 -87 -87 -238l-17 -85q-29 -142 -29 -332q0 -219 102 -219q108 0 295.5 180.5t368.5 459.5l78 -54q-185 -330 -423 -550.5t-409 -220.5q-216 0 -216 360q0 75 6 202 q-128 -265 -315.5 -450.5t-326.5 -185.5q-106 0 -169.5 94.5t-63.5 251.5zM449 368q0 -202 132 -202q143 0 547 628q5 8 41 56q-210 137 -349 137q-151 0 -261 -183.5t-110 -435.5zM798 1352q0 60 65 112.5t139 52.5q62 0 119 -34l29 -19q54 -33 91 -33q80 0 90 108 q85 -24 85 -83q0 -62 -65 -117.5t-138 -55.5q-47 0 -136 52l-39 23q-40 24 -78 24q-73 0 -73 -92v-19q-89 27 -89 81z" />
<glyph unicode="&#xe4;" horiz-adv-x="1621" d="M247 321q0 313 189.5 551t438.5 238q151 0 327 -94q26 93 212 93q12 0 39 -1q-57 -87 -87 -238l-17 -85q-29 -142 -29 -332q0 -219 102 -219q108 0 295.5 180.5t368.5 459.5l78 -54q-185 -330 -423 -550.5t-409 -220.5q-216 0 -216 360q0 75 6 202 q-128 -265 -315.5 -450.5t-326.5 -185.5q-106 0 -169.5 94.5t-63.5 251.5zM449 368q0 -202 132 -202q143 0 547 628q5 8 41 56q-210 137 -349 137q-151 0 -261 -183.5t-110 -435.5zM823 1358l3 36q2 15 2 30q0 17 -5 33h23q148 0 148 -55q0 -44 -18 -119q-36 2 -68 2 q-85 0 -85 73zM1218 1356l4 37q1 13 1 29q0 18 -4 34h22q148 0 148 -55q0 -43 -18 -119q-32 2 -68 2q-85 0 -85 72z" />
<glyph unicode="&#xe5;" horiz-adv-x="1621" d="M247 321q0 313 189.5 551t438.5 238q151 0 327 -94q26 93 212 93q12 0 39 -1q-57 -87 -87 -238l-17 -85q-29 -142 -29 -332q0 -219 102 -219q108 0 295.5 180.5t368.5 459.5l78 -54q-185 -330 -423 -550.5t-409 -220.5q-216 0 -216 360q0 75 6 202 q-128 -265 -315.5 -450.5t-326.5 -185.5q-106 0 -169.5 94.5t-63.5 251.5zM449 368q0 -202 132 -202q143 0 547 628q5 8 41 56q-210 137 -349 137q-151 0 -261 -183.5t-110 -435.5zM926 1417q0 70 75 145.5t176 107.5q11 -28 11 -43q0 -8 -1 -20q156 -57 156 -161 q0 -72 -61.5 -118t-157.5 -46q-84 0 -141 39t-57 96zM1031 1425q0 -50 88 -50q138 0 138 74q0 41 -103 103q-123 -76 -123 -127z" />
<glyph unicode="&#xe6;" horiz-adv-x="1985" d="M247 319q0 332 191 562t467 230q224 0 423 -155q188 154 361 154q105 0 170.5 -55.5t65.5 -144.5q0 -199 -199 -340.5t-479 -141.5q-2 -30 -2 -53q0 -107 69.5 -179.5t171.5 -72.5q225 0 475.5 195.5t479.5 548.5l87 -46q-235 -397 -533.5 -621.5t-593.5 -224.5 q-164 0 -266.5 105t-102.5 272q0 25 4 76q-316 -453 -555 -453q-106 0 -170 94.5t-64 249.5zM448 362q0 -189 136 -189q163 0 621 675q-162 145 -349 145q-178 0 -293 -178t-115 -453zM1249 513q218 15 350.5 110.5t132.5 236.5q0 52 -38.5 89.5t-92.5 37.5 q-122 0 -218.5 -129.5t-133.5 -344.5z" />
<glyph unicode="&#xe7;" horiz-adv-x="1170" d="M263 411q0 284 205.5 491.5t487.5 207.5q113 0 185.5 -43t72.5 -111q0 -110 -187 -165q10 24 10 46q0 162 -172 162q-149 0 -274.5 -166.5t-125.5 -364.5q0 -161 83.5 -262.5t217.5 -101.5q368 0 862 763l84 -50q-150 -258 -377 -503q-180 -195 -302 -268.5t-308 -101.5 l-32 -40q144 -36 144 -123q0 -67 -65 -121.5t-144 -54.5q-127 0 -127 97v11q58 -20 91 -20q112 0 112 77q0 61 -147 87l71 91q-365 68 -365 463z" />
<glyph unicode="&#xe8;" horiz-adv-x="1198" d="M248 408q0 290 189.5 496t456.5 206q129 0 206.5 -65t77.5 -174q0 -179 -215.5 -317t-495.5 -138q0 -293 248 -293q215 0 474 205t467 540l85 -47q-196 -366 -509.5 -606t-594.5 -240q-180 0 -284.5 116t-104.5 317zM475 512q209 11 358.5 120t149.5 252q0 128 -114 128 q-136 0 -251 -146t-143 -354zM688 1548q-3 54 166 95q61 -215 205 -360q-22 -2 -34 -2q-118 0 -235 123q-100 106 -102 144z" />
<glyph unicode="&#xe9;" horiz-adv-x="1198" d="M248 408q0 290 189.5 496t456.5 206q129 0 206.5 -65t77.5 -174q0 -179 -215.5 -317t-495.5 -138q0 -293 248 -293q215 0 474 205t467 540l85 -47q-196 -366 -509.5 -606t-594.5 -240q-180 0 -284.5 116t-104.5 317zM475 512q209 11 358.5 120t149.5 252q0 128 -114 128 q-136 0 -251 -146t-143 -354zM756 1283q48 42 83 83l47 57q83 98 136.5 130t135.5 32q71 0 125 -13q-81 -37 -180 -123l-41 -34q-153 -132 -306 -132z" />
<glyph unicode="&#xea;" horiz-adv-x="1198" d="M248 408q0 290 189.5 496t456.5 206q129 0 206.5 -65t77.5 -174q0 -179 -215.5 -317t-495.5 -138q0 -293 248 -293q215 0 474 205t467 540l85 -47q-196 -366 -509.5 -606t-594.5 -240q-180 0 -284.5 116t-104.5 317zM475 512q209 11 358.5 120t149.5 252q0 128 -114 128 q-136 0 -251 -146t-143 -354zM537 1297q173 116 240 171l35 29q101 84 260 108q33 -200 135 -322q-103 0 -149 32.5t-114 152.5q-202 -185 -329 -185q-31 0 -78 14z" />
<glyph unicode="&#xeb;" horiz-adv-x="1198" d="M248 408q0 290 189.5 496t456.5 206q129 0 206.5 -65t77.5 -174q0 -179 -215.5 -317t-495.5 -138q0 -293 248 -293q215 0 474 205t467 540l85 -47q-196 -366 -509.5 -606t-594.5 -240q-180 0 -284.5 116t-104.5 317zM475 512q209 11 358.5 120t149.5 252q0 128 -114 128 q-136 0 -251 -146t-143 -354zM638 1358l3 36q2 15 2 30q0 17 -5 33h23q148 0 148 -55q0 -44 -18 -119q-36 2 -68 2q-85 0 -85 73zM1033 1356l4 37q1 13 1 29q0 18 -4 34h22q148 0 148 -55q0 -43 -18 -119q-32 2 -68 2q-85 0 -85 72z" />
<glyph unicode="&#xec;" horiz-adv-x="908" d="M330 240q0 45 20 143l22 110q49 238 49 334q0 57 -34 93q130 30 163 30q74 0 74 -104q0 -77 -29 -221l-39 -195q-29 -141 -29 -183q0 -124 105 -124q125 0 333 210.5t403 533.5l83 -49q-226 -396 -457 -619.5t-415 -223.5q-112 0 -180.5 73t-68.5 192zM350 1548 q-3 54 166 95q61 -215 205 -360q-22 -2 -34 -2q-118 0 -235 123q-100 106 -102 144z" />
<glyph unicode="&#xed;" horiz-adv-x="908" d="M330 240q0 45 20 143l22 110q49 238 49 334q0 57 -34 93q130 30 163 30q74 0 74 -104q0 -77 -29 -221l-39 -195q-29 -141 -29 -183q0 -124 105 -124q125 0 333 210.5t403 533.5l83 -49q-226 -396 -457 -619.5t-415 -223.5q-112 0 -180.5 73t-68.5 192zM479 1283 q48 42 83 83l47 57q83 98 136.5 130t135.5 32q71 0 125 -13q-81 -37 -180 -123l-41 -34q-153 -132 -306 -132z" />
<glyph unicode="&#xee;" horiz-adv-x="908" d="M235 1297q173 116 240 171l35 29q101 84 260 108q33 -200 135 -322q-103 0 -149 32.5t-114 152.5q-202 -185 -329 -185q-31 0 -78 14zM330 240q0 45 20 143l22 110q49 238 49 334q0 57 -34 93q130 30 163 30q74 0 74 -104q0 -77 -29 -221l-39 -195q-29 -141 -29 -183 q0 -124 105 -124q125 0 333 210.5t403 533.5l83 -49q-226 -396 -457 -619.5t-415 -223.5q-112 0 -180.5 73t-68.5 192z" />
<glyph unicode="&#xef;" horiz-adv-x="908" d="M299 1358l3 36q2 15 2 30q0 17 -5 33h23q148 0 148 -55q0 -44 -18 -119q-36 2 -68 2q-85 0 -85 73zM331 240q0 45 20 143l22 110q49 238 49 334q0 57 -34 93q130 30 163 30q74 0 74 -104q0 -77 -29 -221l-39 -195q-29 -141 -29 -183q0 -124 105 -124q125 0 333 210.5 t403 533.5l83 -49q-226 -396 -457 -619.5t-415 -223.5q-112 0 -180.5 73t-68.5 192zM694 1356l4 37q1 13 1 29q0 18 -4 34h22q148 0 148 -55q0 -43 -18 -119q-32 2 -68 2q-85 0 -85 72z" />
<glyph unicode="&#xf0;" horiz-adv-x="1367" d="M284 343q0 279 198.5 511t437.5 232q113 0 204 -66q-25 200 -104 352l-29 -19q-111 -71 -171 -151q-27 55 -27 105q0 51 129 128l40 24q-131 163 -330 163q-83 0 -187 -34q51 164 197 164q284 0 463 -210l41 25q176 107 220 205q51 -53 51 -102q0 -36 -25.5 -59.5 t-146.5 -100.5l-80 -51q167 -259 167 -594q0 -425 -255 -680q-210 -210 -447 -210q-156 0 -251 101.5t-95 266.5zM488 402q0 -303 188 -303q177 0 313.5 183.5t136.5 422.5q0 282 -227 282q-160 0 -285.5 -178.5t-125.5 -406.5z" />
<glyph unicode="&#xf1;" horiz-adv-x="1652" d="M382 87q0 32 26 288l22 217q15 138 15 214q0 106 -48 167q21 7 70 24q62 22 99 22q78 0 78 -114q0 -60 -15 -206q-3 -32 -6 -61l-26 -279q355 751 638 751q221 0 221 -440l2 -121q0 -210 21.5 -290.5t78.5 -80.5q86 0 195.5 137t356.5 551l84 -49q-220 -415 -394 -616 t-312 -201q-127 0 -178.5 123t-51.5 426l-1 86q0 164 -21 230.5t-73 66.5q-132 0 -425 -527q-72 -129 -93 -166q-77 -134 -77 -194q0 -24 13 -46q-58 -24 -98 -24q-101 0 -101 112zM795 1352q0 60 65 112.5t139 52.5q62 0 119 -34l29 -19q54 -33 91 -33q80 0 90 108 q85 -24 85 -83q0 -62 -65 -117.5t-138 -55.5q-47 0 -136 52l-39 23q-40 24 -78 24q-73 0 -73 -92v-19q-89 27 -89 81z" />
<glyph unicode="&#xf2;" horiz-adv-x="1373" d="M231 437q0 233 163.5 404t385.5 171q34 0 72 -9q-25 45 -25 76q0 48 33 92q244 -20 406 -250q166 -113 346 -113q117 0 253 79l50 -85q-159 -111 -326 -111q-111 0 -252 46q3 -24 3 -43q0 -289 -196 -504t-459 -215q-201 0 -327.5 128.5t-126.5 333.5zM439 411 q0 -142 79.5 -233.5t204.5 -91.5q169 0 291 170.5t122 406.5q0 82 -26 159q-83 25 -153 80q-51 11 -85 11q-170 0 -301.5 -153t-131.5 -349zM776 1548q-3 54 166 95q61 -215 205 -360q-22 -2 -34 -2q-118 0 -235 123q-100 106 -102 144z" />
<glyph unicode="&#xf3;" horiz-adv-x="1373" d="M231 437q0 233 163.5 404t385.5 171q34 0 72 -9q-25 45 -25 76q0 48 33 92q244 -20 406 -250q166 -113 346 -113q117 0 253 79l50 -85q-159 -111 -326 -111q-111 0 -252 46q3 -24 3 -43q0 -289 -196 -504t-459 -215q-201 0 -327.5 128.5t-126.5 333.5zM439 411 q0 -142 79.5 -233.5t204.5 -91.5q169 0 291 170.5t122 406.5q0 82 -26 159q-83 25 -153 80q-51 11 -85 11q-170 0 -301.5 -153t-131.5 -349zM872 1283q48 42 83 83l47 57q83 98 136.5 130t135.5 32q71 0 125 -13q-81 -37 -180 -123l-41 -34q-153 -132 -306 -132z" />
<glyph unicode="&#xf4;" horiz-adv-x="1373" d="M231 437q0 233 163.5 404t385.5 171q34 0 72 -9q-25 45 -25 76q0 48 33 92q244 -20 406 -250q166 -113 346 -113q117 0 253 79l50 -85q-159 -111 -326 -111q-111 0 -252 46q3 -24 3 -43q0 -289 -196 -504t-459 -215q-201 0 -327.5 128.5t-126.5 333.5zM439 411 q0 -142 79.5 -233.5t204.5 -91.5q169 0 291 170.5t122 406.5q0 82 -26 159q-83 25 -153 80q-51 11 -85 11q-170 0 -301.5 -153t-131.5 -349zM659 1297q173 116 240 171l35 29q101 84 260 108q33 -200 135 -322q-103 0 -149 32.5t-114 152.5q-202 -185 -329 -185 q-31 0 -78 14z" />
<glyph unicode="&#xf5;" horiz-adv-x="1373" d="M231 437q0 233 163.5 404t385.5 171q34 0 72 -9q-25 45 -25 76q0 48 33 92q244 -20 406 -250q166 -113 346 -113q117 0 253 79l50 -85q-159 -111 -326 -111q-111 0 -252 46q3 -24 3 -43q0 -289 -196 -504t-459 -215q-201 0 -327.5 128.5t-126.5 333.5zM439 411 q0 -142 79.5 -233.5t204.5 -91.5q169 0 291 170.5t122 406.5q0 82 -26 159q-83 25 -153 80q-51 11 -85 11q-170 0 -301.5 -153t-131.5 -349zM742 1352q0 60 65 112.5t139 52.5q62 0 119 -34l29 -19q54 -33 91 -33q80 0 90 108q85 -24 85 -83q0 -62 -65 -117.5t-138 -55.5 q-47 0 -136 52l-39 23q-40 24 -78 24q-73 0 -73 -92v-19q-89 27 -89 81z" />
<glyph unicode="&#xf6;" horiz-adv-x="1373" d="M231 437q0 233 163.5 404t385.5 171q34 0 72 -9q-25 45 -25 76q0 48 33 92q244 -20 406 -250q166 -113 346 -113q117 0 253 79l50 -85q-159 -111 -326 -111q-111 0 -252 46q3 -24 3 -43q0 -289 -196 -504t-459 -215q-201 0 -327.5 128.5t-126.5 333.5zM439 411 q0 -142 79.5 -233.5t204.5 -91.5q169 0 291 170.5t122 406.5q0 82 -26 159q-83 25 -153 80q-51 11 -85 11q-170 0 -301.5 -153t-131.5 -349zM760 1358l3 36q2 15 2 30q0 17 -5 33h23q148 0 148 -55q0 -44 -18 -119q-36 2 -68 2q-85 0 -85 73zM1155 1356l4 37q1 13 1 29 q0 18 -4 34h22q148 0 148 -55q0 -43 -18 -119q-32 2 -68 2q-85 0 -85 72z" />
<glyph unicode="&#xf7;" d="M239 456q23 139 98 186q49 30 273 30h381q298 0 389 67q-27 -136 -82 -175.5t-219 -39.5h-476q-239 0 -364 -68zM632 302l71 14q75 14 107 14q86 0 86 -91q0 -36 -10 -87l-13 -67l-46 -9q-97 -18 -117 -18q-71 0 -71 74q0 20 4 39l5 26q4 17 4 36q0 41 -20 69zM793 1110 l71 14q73 14 106 14q87 0 87 -92q0 -36 -10 -86l-14 -67l-45 -9q-98 -18 -117 -18q-71 0 -71 73q0 21 4 40l5 26q4 17 4 36q0 41 -20 69z" />
<glyph unicode="&#xf8;" horiz-adv-x="1373" d="M221 -133q0 44 110 195l28 39q-130 152 -130 344q0 231 165.5 399t394.5 168q32 0 61 -10q-22 55 -22 77q0 45 31 91q168 -10 293 -124l38 42q205 232 325 232q57 0 140 -36q-188 -72 -394 -266l-42 -38q25 -25 46 -60q185 -112 345 -112q115 0 255 79l50 -84 q-151 -112 -325 -112q-127 0 -268 54q6 -32 6 -55q0 -285 -195 -500t-454 -215q-112 0 -230 59q-107 -136 -107 -251q0 -8 2 -24q-123 47 -123 108zM432 415q0 -79 39 -171q238 327 519 636q-18 9 -35 22q-54 11 -87 11q-168 0 -302 -153t-134 -345zM535 157q86 -71 186 -71 q168 0 292 168t124 395q0 89 -26 173q-15 5 -29 11q-232 -236 -547 -676z" />
<glyph unicode="&#xf9;" horiz-adv-x="1599" d="M313 252q0 158 106 580q29 114 29 144t-19 65l138 1q89 0 89 -69q0 -43 -58 -247q-18 -61 -23 -84l-15 -61q-44 -183 -44 -279q0 -148 102 -148q167 0 424 414q210 337 210 480q0 20 -12 40q82 23 139 23q88 0 88 -54q0 -13 -8 -38q-4 -15 -19 -73q-2 -11 -20 -81 q-13 -49 -19 -78l-10 -48q-33 -165 -33 -309q0 -220 106 -220q234 0 594 660l84 -50q-410 -789 -750 -789q-229 0 -229 397q0 75 8 188q-138 -285 -308 -463t-305 -178q-109 0 -177 77t-68 200zM798 1548q-3 54 166 95q61 -215 205 -360q-22 -2 -34 -2q-118 0 -235 123 q-100 106 -102 144z" />
<glyph unicode="&#xfa;" horiz-adv-x="1599" d="M313 252q0 158 106 580q29 114 29 144t-19 65l138 1q89 0 89 -69q0 -43 -58 -247q-18 -61 -23 -84l-15 -61q-44 -183 -44 -279q0 -148 102 -148q167 0 424 414q210 337 210 480q0 20 -12 40q82 23 139 23q88 0 88 -54q0 -13 -8 -38q-4 -15 -19 -73q-2 -11 -20 -81 q-13 -49 -19 -78l-10 -48q-33 -165 -33 -309q0 -220 106 -220q234 0 594 660l84 -50q-410 -789 -750 -789q-229 0 -229 397q0 75 8 188q-138 -285 -308 -463t-305 -178q-109 0 -177 77t-68 200zM905 1283q48 42 83 83l47 57q83 98 136.5 130t135.5 32q71 0 125 -13 q-81 -37 -180 -123l-41 -34q-153 -132 -306 -132z" />
<glyph unicode="&#xfb;" horiz-adv-x="1599" d="M313 252q0 158 106 580q29 114 29 144t-19 65l138 1q89 0 89 -69q0 -43 -58 -247q-18 -61 -23 -84l-15 -61q-44 -183 -44 -279q0 -148 102 -148q167 0 424 414q210 337 210 480q0 20 -12 40q82 23 139 23q88 0 88 -54q0 -13 -8 -38q-4 -15 -19 -73q-2 -11 -20 -81 q-13 -49 -19 -78l-10 -48q-33 -165 -33 -309q0 -220 106 -220q234 0 594 660l84 -50q-410 -789 -750 -789q-229 0 -229 397q0 75 8 188q-138 -285 -308 -463t-305 -178q-109 0 -177 77t-68 200zM695 1297q173 116 240 171l35 29q101 84 260 108q33 -200 135 -322 q-103 0 -149 32.5t-114 152.5q-202 -185 -329 -185q-31 0 -78 14z" />
<glyph unicode="&#xfc;" horiz-adv-x="1599" d="M313 252q0 158 106 580q29 114 29 144t-19 65l138 1q89 0 89 -69q0 -43 -58 -247q-18 -61 -23 -84l-15 -61q-44 -183 -44 -279q0 -148 102 -148q167 0 424 414q210 337 210 480q0 20 -12 40q82 23 139 23q88 0 88 -54q0 -13 -8 -38q-4 -15 -19 -73q-2 -11 -20 -81 q-13 -49 -19 -78l-10 -48q-33 -165 -33 -309q0 -220 106 -220q234 0 594 660l84 -50q-410 -789 -750 -789q-229 0 -229 397q0 75 8 188q-138 -285 -308 -463t-305 -178q-109 0 -177 77t-68 200zM722 1358l3 36q2 15 2 30q0 17 -5 33h23q148 0 148 -55q0 -44 -18 -119 q-36 2 -68 2q-85 0 -85 73zM1117 1356l4 37q1 13 1 29q0 18 -4 34h22q148 0 148 -55q0 -43 -18 -119q-32 2 -68 2q-85 0 -85 72z" />
<glyph unicode="&#xfd;" horiz-adv-x="1178" d="M-35 -455q0 46 24 108q55 -34 136 -34q293 0 560 387q-43 268 -152.5 530.5t-236.5 400.5q74 62 152 62q67 0 111.5 -60.5t111.5 -243.5q105 -287 157 -520q338 535 366 935q175 -26 175 -117q0 -96 -157.5 -395t-339.5 -548q-210 -287 -417 -452.5t-356 -165.5 q-134 0 -134 113zM687 1283q48 42 83 83l47 57q83 98 136.5 130t135.5 32q71 0 125 -13q-81 -37 -180 -123l-41 -34q-153 -132 -306 -132z" />
<glyph unicode="&#xfe;" horiz-adv-x="1252" d="M148 -572q0 73 33 239l329 1653q-89 -18 -146 -18q-88 0 -129 41.5t-67 154.5q73 -49 221 -49q185 0 357 68l-113 -571q169 164 352 164q158 0 264.5 -120.5t106.5 -300.5q0 -281 -195.5 -485t-462.5 -204q-146 0 -241 62l-74 -370q-25 -126 -25 -218q0 -59 26 -107 q-101 -33 -154 -33q-82 0 -82 94zM488 217q100 -118 247 -118q177 0 300.5 148t123.5 360q0 153 -70 248t-183 95q-139 0 -304 -158z" />
<glyph unicode="&#xff;" horiz-adv-x="1178" d="M-35 -455q0 46 24 108q55 -34 136 -34q293 0 560 387q-43 268 -152.5 530.5t-236.5 400.5q74 62 152 62q67 0 111.5 -60.5t111.5 -243.5q105 -287 157 -520q338 535 366 935q175 -26 175 -117q0 -96 -157.5 -395t-339.5 -548q-210 -287 -417 -452.5t-356 -165.5 q-134 0 -134 113zM594 1358l3 36q2 15 2 30q0 17 -5 33h23q148 0 148 -55q0 -44 -18 -119q-36 2 -68 2q-85 0 -85 73zM989 1356l4 37q1 13 1 29q0 18 -4 34h22q148 0 148 -55q0 -43 -18 -119q-32 2 -68 2q-85 0 -85 72z" />
<glyph unicode="&#x152;" horiz-adv-x="2152" d="M229 588q0 382 280 674.5t647 292.5q190 0 338 -75h435q239 0 453 53q-67 -117 -134 -146.5t-267 -29.5h-329l-97 -487h208q206 0 346 54q-79 -138 -126 -161t-245 -23h-209l-48 -244q-27 -134 -27 -202q0 -171 273 -171q229 0 424 89q-37 -141 -111 -178 q-46 -23 -196 -47t-248 -24q-264 0 -350 159q-213 -159 -452 -159q-247 0 -406 175.5t-159 449.5zM439 676q0 -261 123.5 -431.5t312.5 -170.5q180 0 347 176l98 490h-31q-190 0 -316 -88q32 133 100 175.5t252 42.5h20l88 438q-172 129 -359 129q-261 0 -448 -224 t-187 -537z" />
<glyph unicode="&#x153;" horiz-adv-x="1944" d="M230 439q0 246 183.5 421.5t441.5 175.5q226 0 361 -142q209 216 432 216q105 0 172 -56.5t67 -145.5q0 -195 -202 -337.5t-479 -142.5q-1 -33 -1 -50q0 -108 69.5 -181.5t172.5 -73.5q221 0 485.5 207t468.5 540l86 -49q-228 -392 -529.5 -619t-593.5 -227 q-186 0 -302 147q-180 -147 -376 -147q-204 0 -330 128t-126 336zM436 414q0 -144 81 -236t208 -92q155 0 277 152q-13 50 -13 100q0 238 137 454q-63 146 -229 146q-175 0 -318 -162.5t-143 -361.5zM1208 514q216 15 348.5 110t132.5 236q0 52 -38.5 89.5t-92.5 37.5 q-121 0 -217 -129.5t-133 -343.5z" />
<glyph unicode="&#x178;" horiz-adv-x="1196" d="M157 1500q105 73 159 73q192 0 450 -785q197 173 345.5 359t148.5 260q0 41 -33 72q85 38 134 38q82 0 82 -87q0 -97 -198 -325t-442 -413l-98 -495q-19 -94 -19 -123q0 -28 12 -60q-102 -51 -184 -51q-53 0 -53 42q0 22 21 125l111 562q-61 273 -184.5 502t-251.5 306z M605 1679l3 36q2 15 2 30q0 17 -5 33h23q148 0 148 -55q0 -44 -18 -119q-36 2 -68 2q-85 0 -85 73zM1000 1677l4 37q1 13 1 29q0 18 -4 34h22q148 0 148 -55q0 -43 -18 -119q-32 2 -68 2q-85 0 -85 72z" />
<glyph unicode="&#x2c6;" d="M659 1297q173 116 240 171l35 29q101 84 260 108q33 -200 135 -322q-103 0 -149 32.5t-114 152.5q-202 -185 -329 -185q-31 0 -78 14z" />
<glyph unicode="&#x2dc;" d="M742 1352q0 60 65 112.5t139 52.5q62 0 119 -34l29 -19q54 -33 91 -33q80 0 90 108q85 -24 85 -83q0 -62 -65 -117.5t-138 -55.5q-47 0 -136 52l-39 23q-40 24 -78 24q-73 0 -73 -92v-19q-89 27 -89 81z" />
<glyph unicode="&#x2000;" horiz-adv-x="982" />
<glyph unicode="&#x2001;" horiz-adv-x="1964" />
<glyph unicode="&#x2002;" horiz-adv-x="982" />
<glyph unicode="&#x2003;" horiz-adv-x="1964" />
<glyph unicode="&#x2004;" horiz-adv-x="654" />
<glyph unicode="&#x2005;" horiz-adv-x="491" />
<glyph unicode="&#x2006;" horiz-adv-x="327" />
<glyph unicode="&#x2007;" horiz-adv-x="327" />
<glyph unicode="&#x2008;" horiz-adv-x="245" />
<glyph unicode="&#x2009;" horiz-adv-x="392" />
<glyph unicode="&#x200a;" horiz-adv-x="109" />
<glyph unicode="&#x2010;" horiz-adv-x="985" d="M498 519q57 176 183 176q24 0 50 -3l109 -12q32 -3 62 -3q80 0 115 44q-30 -195 -140 -195q-25 0 -62 4l-74 9q-78 10 -121 10q-62 0 -122 -30z" />
<glyph unicode="&#x2011;" horiz-adv-x="985" d="M498 519q57 176 183 176q24 0 50 -3l109 -12q32 -3 62 -3q80 0 115 44q-30 -195 -140 -195q-25 0 -62 4l-74 9q-78 10 -121 10q-62 0 -122 -30z" />
<glyph unicode="&#x2012;" horiz-adv-x="985" d="M498 519q57 176 183 176q24 0 50 -3l109 -12q32 -3 62 -3q80 0 115 44q-30 -195 -140 -195q-25 0 -62 4l-74 9q-78 10 -121 10q-62 0 -122 -30z" />
<glyph unicode="&#x2013;" horiz-adv-x="1024" d="M463 475q35 155 88 185.5t287 30.5h15q297 0 389 65q-23 -147 -86 -180t-317 -33h-9q-240 0 -367 -68z" />
<glyph unicode="&#x2014;" horiz-adv-x="2048" d="M490 475q34 155 87 185.5t287 30.5h985q297 0 388 65q-23 -147 -85.5 -180t-316.5 -33h-979q-239 0 -366 -68z" />
<glyph unicode="&#x2018;" horiz-adv-x="584" d="M309 1326q0 155 110.5 290.5t236.5 135.5q70 0 83 -106q-33 7 -55 7q-71 0 -121 -60t-50 -146q0 -125 124 -210q-104 -71 -189 -71q-139 0 -139 160z" />
<glyph unicode="&#x2019;" horiz-adv-x="584" d="M296 1272q32 -7 55 -7q71 0 121 60t50 145q0 125 -124 210q105 72 189 72q139 0 139 -160q0 -155 -110.5 -290.5t-235.5 -135.5q-70 0 -84 106z" />
<glyph unicode="&#x201a;" horiz-adv-x="714" d="M193 -209q33 -7 55 -7q71 0 121 60.5t50 145.5q0 125 -124 210q105 72 189 72q139 0 139 -161q0 -154 -110.5 -290t-235.5 -136q-70 0 -84 106z" />
<glyph unicode="&#x201c;" horiz-adv-x="1044" d="M309 1326q0 155 110.5 290.5t236.5 135.5q70 0 83 -106q-33 7 -55 7q-71 0 -121 -60t-50 -146q0 -125 124 -210q-104 -71 -189 -71q-139 0 -139 160zM769 1326q0 155 110 290.5t236 135.5q71 0 84 -106q-33 7 -55 7q-71 0 -121 -60t-50 -146q0 -125 124 -210 q-104 -71 -189 -71q-139 0 -139 160z" />
<glyph unicode="&#x201d;" horiz-adv-x="1044" d="M302 1272q32 -7 55 -7q71 0 121 60t50 145q0 125 -124 210q105 72 189 72q139 0 139 -160q0 -155 -110.5 -290.5t-235.5 -135.5q-70 0 -84 106zM762 1272q32 -7 54 -7q72 0 122 60t50 146q0 125 -124 209q104 72 189 72q139 0 139 -160q0 -155 -110.5 -290.5 t-235.5 -135.5q-71 0 -84 106z" />
<glyph unicode="&#x201e;" horiz-adv-x="1173" d="M193 -209q33 -7 55 -7q71 0 121 60.5t50 145.5q0 125 -124 210q105 72 189 72q139 0 139 -161q0 -154 -110.5 -290t-235.5 -136q-70 0 -84 106zM653 -209q33 -7 55 -7q71 0 121 60.5t50 145.5q0 125 -124 210q104 72 188 72q140 0 140 -161q0 -154 -110.5 -290 t-236.5 -136q-70 0 -83 106z" />
<glyph unicode="&#x2022;" d="M634 562q0 65 63 115.5t142 50.5q143 0 143 -116q0 -65 -66 -119.5t-145 -54.5q-137 0 -137 124z" />
<glyph unicode="&#x2026;" horiz-adv-x="2048" d="M251 186q75 20 128 20q82 0 82 -78q0 -26 -18 -109q-74 -19 -111 -19q-73 0 -73 67v16l2 33l1 8q0 37 -11 62zM934 186q76 20 129 20q82 0 82 -78q0 -26 -18 -109q-75 -19 -111 -19q-74 0 -74 67q0 8 1 16l2 33v8q0 37 -11 62zM1617 186q76 20 128 20q83 0 83 -78 q0 -25 -18 -109q-75 -19 -111 -19q-74 0 -74 66q0 8 1 17l2 33v8q0 37 -11 62z" />
<glyph unicode="&#x202f;" horiz-adv-x="392" />
<glyph unicode="&#x2039;" horiz-adv-x="1036" d="M507 561q363 198 489 450q12 -9 18 -13q45 -31 45 -67q0 -108 -347 -419q42 -112 124 -187t162 -75h14q-63 -65 -122 -65q-194 0 -383 376z" />
<glyph unicode="&#x203a;" horiz-adv-x="1036" d="M505 169q0 123 331 381q-201 192 -201 331q0 43 42 82q118 -257 402 -428q-379 -194 -514 -467q-60 47 -60 101z" />
<glyph unicode="&#x205f;" horiz-adv-x="491" />
<glyph unicode="&#x2122;" horiz-adv-x="1949" d="M317 1369q7 25 10 37q32 117 70.5 148.5t149.5 31.5l136 -5l89 -2h50q166 0 299 37q-20 -173 -180 -173q-28 0 -71 3q-48 4 -65 4h-27l-58 -292q-25 -123 -25 -189q0 -74 33 -122q-51 -20 -101 -20q-111 0 -111 87q0 33 25 153l76 383h-22q-137 0 -278 -81zM1123 923 q0 41 50 245l48 187q29 117 29 187q0 61 -25 110q68 26 105 26q67 0 95.5 -44t52.5 -184l25 -135q25 -141 59 -218l118 222q9 17 46 97q43 91 83 119.5t158 51.5l57 10q-58 -253 -58 -436q0 -237 98 -332q-83 -64 -145 -64q-68 0 -94 60.5t-26 218.5q0 130 29 364 q-163 -364 -170 -377q-69 -143 -139 -143q-65 0 -98.5 97t-75.5 402l-56 -281q-22 -109 -22 -152q0 -71 39 -125q-21 -2 -35 -2q-148 0 -148 96z" />
<glyph unicode="&#x25fc;" horiz-adv-x="1090" d="M0 0v1090h1090v-1090h-1090z" />
</font>
</defs>
</svg>
